Врятувати рядового Раяна (Врятування рядового Раяна) / Saving Private Ryan (1998) Remux 1080p 2xUkr/Eng | Sub Eng

Нові коментарі

Нова тема   Відповісти
Автор Повідомлення
Argentum 
Свій


З нами з: 25.09.11
Востаннє: 24.08.17
Повідомлень: 70

2017-03-09 16:17  
Врятувати рядового Раяна / Врятування рядового Раяна / Saving Private Ryan (1998) Remux 1080p 2xUkr/Eng | Sub Eng



Жанр: драма, воєнний, екшн
Країна: США

Top 250 #29

Кінокомпанія: DreamWorks SKG, Paramount Pictures, Amblin Entertainment
Режисер: Стівен Спілберґ
Актори: Том Генкс, Том Сайзмoр, Едвард Бернс, Баррі Пеппер, Адам Ґолдберґ, Він Дізель, Джованні Рібізі, Джеремі Девіс, Мет Деймон, Тед Дансон

Сюжет:
Ви побачите війну очима американських солдатів, які здійснили висадку в Нормандії в так званий "День Д", що назавжди увійшов до літопису Другої Світової війни. Капітан Джон Міллер отримує важке завдання. Разом із загоном з восьми чоловік Міллер повинен відправитися в тил ворога на пошуки рядового Джеймса Райана, три рідних брати якого, майже одночасно загинули на полях битв. Командування прийняло рішення демобілізувати Райана і відправити його на батьківщину до безутішної матері. Але для того, щоб знайти і врятувати солдата, крихітному загону доведеться пройти через всі кола пекла.


Тривалість: 02:48:21
Якість: Remux 1080p
Відео:
кодек:
розмір кадру: 1920 х 1080
бітрейт: ~ 27400 кб/с

Аудіо # 1:
мова: українська
переклад: багатоголосий закадровий
кодек: 5.1
бітрейт: 384 кб/с

Аудіо # 2:
мова: українська
переклад: багатоголосий закадровий
кодек: 2.0
бітрейт: 192 кб/с

Аудіо # 3:
мова: англійська
переклад: оригінал
кодек: -HD 5.1
бітрейт: ~4195 кб/с

Аудіо # 4:
мова: англійська
переклад: оригінал
кодек: 5.1
бітрейт: 384 кб/с

Субтитри:
мова: англійська
тип: пререндерні
формат: *.pgs
Info
General
Unique ID : 142009113890094033028626587411342030300 (0x6AD5F5E220A8A72DD96DFDB63955F5DC)
Complete name : /home/jacks/Videos/My/Saving Private Ryan/Saving Private Ryan (1998) [2xUkr, Eng] Remux 1080p [Hurtom].
Format :
Format version : Version 4 / Version 2
File size : 38.3 GiB
Duration : 2 h 48 min
Overall bit rate mode : Variable
Overall bit rate : 32.6 Mb/s
Movie name : Release for HURTOM.COM
Encoded date : UTC 2017-03-09 12:18:19
Writing application : mkvmerge v9.9.0 ('Pick Up') 64bit
Writing library : libebml v1.3.4 + libmatroska v1.4.5
Attachments : ryan2_550.jpg

Video
ID : 1
Format : AVC
Format/Info : Advanced Video Codec
Format profile : [email protected]
Format settings, CABAC : Yes
Format settings, ReFrames : 4 frames
Codec ID : V_MPEG4/ISO/AVC
Duration : 2 h 48 min
Bit rate mode : Variable
Bit rate : 27.4 Mb/s
Maximum bit rate : 37.0 Mb/s
Width : 1 920 pixels
Height : 1 080 pixels
Display aspect ratio : 16:9
Frame rate mode : Constant
Frame rate : 23.976 (24000/1001) FPS
Color space : YUV
Chroma subsampling : 4:2:0
Bit depth : 8 bits
Scan type : Progressive
Bits/(Pixel*Frame) : 0.551
Stream size : 32.2 GiB (84%)
Default : Yes
Forced : No
Color range : Limited
Color primaries : BT.709
Transfer characteristics : BT.709
Matrix coefficients : BT.709

Audio #1
ID : 2
Format : AC-3
Format/Info : Audio Coding 3
Format settings, Endianness : Big
Codec ID : A_AC3
Duration : 2 h 48 min
Bit rate mode : Constant
Bit rate : 384 kb/s
Channel(s) : 6 channels
Channel positions : Front: L C R, Side: L R, LFE
Sampling rate : 48.0 kHz
Frame rate : 31.250 FPS (1536 spf)
Bit depth : 16 bits
Compression mode : Lossy
Stream size : 462 MiB (1%)
Title : ICTV
Language : Ukrainian
Service kind : Complete Main
Default : No
Forced : No

Audio #2
ID : 3
Format : AC-3
Format/Info : Audio Coding 3
Format settings, Endianness : Big
Codec ID : A_AC3
Duration : 2 h 48 min
Bit rate mode : Constant
Bit rate : 192 kb/s
Channel(s) : 2 channels
Channel positions : Front: L R
Sampling rate : 48.0 kHz
Frame rate : 31.250 FPS (1536 spf)
Bit depth : 16 bits
Compression mode : Lossy
Stream size : 231 MiB (1%)
Title : НТН
Language : Ukrainian
Service kind : Complete Main
Default : No
Forced : No

Audio #3
ID : 4
Format :
Format/Info : Digital Theater Systems
Format profile : MA / Core
Mode : 16
Format settings, Endianness : Big
Codec ID : A_DTS
Duration : 2 h 48 min
Bit rate mode : Variable / Constant
Bit rate : 4 213 kb/s / 1 509 kb/s
Channel(s) : 6 channels
Channel positions : Front: L C R, Side: L R, LFE
Sampling rate : 48.0 kHz
Frame rate : 93.750 FPS (512 spf)
Bit depth : 24 bits
Compression mode : Lossless / Lossy
Stream size : 4.95 GiB (13%)
Title : -HD
Language : English
Default : No
Forced : No

Audio #4
ID : 5
Format : AC-3
Format/Info : Audio Coding 3
Format settings, Endianness : Big
Codec ID : A_AC3
Duration : 2 h 48 min
Bit rate mode : Constant
Bit rate : 384 kb/s
Channel(s) : 6 channels
Channel positions : Front: L C R, Side: L R, LFE
Sampling rate : 48.0 kHz
Frame rate : 31.250 FPS (1536 spf)
Bit depth : 16 bits
Compression mode : Lossy
Stream size : 462 MiB (1%)
Title : AC-3
Language : English
Service kind : Complete Main
Default : No
Forced : No

Text
ID : 6
Format : PGS
Codec ID : S_HDMV/PGS
Codec ID/Info : Picture based subtitle format used on BDs/HD-DVDs
Duration : 2 h 37 min
Bit rate : 34.2 kb/s
Count of elements : 3354
Stream size : 38.5 MiB (0%)
Language : English
Default : No
Forced : No
Скріншоти




Джерело: &
Особиста оцінка: 10 - без зайвих вагань рекомендую всім!


Золотий реліз (завантажене не впливає на рейтинг)
 Трекер:    Зареєстрований   

Завантажити / скачати фільм українською



відео для новачків



 Зареєстрований:   2017-08-15 17:32
 Розмір:   38.32 GB 
 Оцінка фільму:   9.3/10 (Голосів: 12)
   
Patriot_ukr 
VIP


З нами з: 06.04.15
Востаннє: 23.08.17
Повідомлень: 1762

2017-03-09 16:59  
Argentum
Додайте ще назву, як у інших релізах: "Врятування рядового Раяна"

Argentum 
Свій


З нами з: 25.09.11
Востаннє: 24.08.17
Повідомлень: 70

2017-03-09 17:18  
Patriot_ukr
Цитата:
Додайте ще назву, як у інших релізах: "Врятування рядового Раяна"

А чому обрано саме такий варіант назви? Якщо ми вже відходимо від прокатної назви яка була в нас то можливо "Порятунок рядового Раяна" адже saving це процес. "Порятунок містера Бенкса / Saving Mr. Banks" - https://toloka.to/t55365

Keltirulla 
VIP


З нами з: 26.08.15
Востаннє: 14.03.17
Повідомлень: 574

2017-03-09 17:32  
Також цікаво, чого це
Patriot_ukr написано:
"Врятування рядового Раяна"
, а не
Argentum написано:
"Порятунок рядового Раяна"
. ?
Patriot_ukr 
VIP


З нами з: 06.04.15
Востаннє: 23.08.17
Повідомлень: 1762

2017-03-09 17:46  
Argentum
Keltirulla
Тому що так переклала студія. Другий варіянт релізер може додати, але назва, як переклала студія має бути обов'язково!

Argentum 
Свій


З нами з: 25.09.11
Востаннє: 24.08.17
Повідомлень: 70

2017-08-15 17:37  
Додав до торрент файла посилання на web-seed. Прохання перехешувати роздачу.
Ваш часовий пояс: GMT + 2 Години

Нова тема   Відповісти