Під куполом / Under the Dome (Сезон 3) (2015) 720p Ukr/Eng

Нові коментарі

Нова тема   Відповісти
Автор Повідомлення
sergiyko.5 
Забанено
Забанено


З нами з: 25.02.16
Востаннє: 29.10.20
Повідомлень: 3650

2017-03-09 15:16  
Під куполом / Under the Dome (Сезон 3) (2015) 720p Ukr/Eng

Під куполом / Under the Dome (Сезон 3) (2015) 720p Ukr/Eng

Жанр: фантастика, драма, детектив, трилер
Країна: США
Кінокомпанія: CBS Television Studios

Режисер:
Джек Бендер
Актори: Майк Вогел, Колін Форд, Александр Кох, Рашел Лефевер, Наталі Мартінез, Дін Норріс, Макендзі Ліндз та ін.

Сюжет:
Два тижні тому невидимий Купол опустився на Честерс Мілл, відрізавши його від решти світу. Чому він з'явився саме тут, і які таємниці він ховає, не знає ніхто.
Щодня він випробовує жителів міста, розкриваючи їхні таємниці і втілюючи в життя їхні найбільші страхи, цим самим викриваючи найкраще і найгірше у них.
Дехто стверджує, що вже нікому не вибратись з цієї пастки, але жителі не перестають боротись, щоб знайти вихід звідти.




Тривалість: 1 серія: 40:00 (цілком серій: 13)
Якість:

Відео: кодек: розмір кадру: 1280 х 720 бітрейт: 4000 кб/с
Аудіо # 1: мова: українська переклад: багатоголосий закадровий кодек: 2.0 бітрейт: 192 кб/с
Аудіо # 2: мова: англійська переклад: оригінал кодек: 5.1 бітрейт: 384 кб/с
Джерело озвучення:

Додаткова інформація: Через особливості озвучення каналом телеверсії серіалу відсутня півтори хвилини перекладу 1-6,11-13 серій, в цей час йдуть уривки минулих серій, озвучка англійською!
Інформація про файл:
General
Unique ID : 223412981424805225935705286430428729292 (0xA813C66C3D049496A68745215C778FCC)
Complete name : D:\Torrents\Under the Dome S03 720p \Under.the.Dome.S03E01-02.720p..Ukr.Eng.
Format :
Format version : Version 4 / Version 2
File size : 2.65 GiB
Duration : 1 h 23 min
Overall bit rate : 4 556 kb/s
Movie name : Under.the.Dome.s03 by sergiyko
Encoded date : UTC 2017-03-09 09:48:14
Writing application : v9.8.0 ('Kuglblids') 64bit
Writing library : libebml v1.3.4 + v1.4.5

Video
ID : 1
Format : AVC
Format/Info : Advanced Video Codec
Format profile : [email protected]
Format settings, CABAC : No
Format settings, ReFrames : 2 frames
Codec ID : V_MPEG4/ISO/AVC
Duration : 1 h 23 min
Bit rate : 3 978 kb/s
Width : 1 280 pixels
Height : 720 pixels
Display aspect ratio : 16:9
Frame rate mode : Constant
Frame rate : 23.976 (24000/1001) FPS
Color space : YUV
Chroma subsampling : 4:2:0
Bit depth : 8 bits
Scan type : Progressive
Bits/(Pixel*Frame) : 0.180
Stream size : 2.31 GiB (87%)
Title : Under the Dome S03E01-02
Language : English
Default : Yes
Forced : No
Color range : Limited
Color primaries : BT.709
Transfer characteristics : BT.709
Matrix coefficients : BT.709

Audio #1
ID : 2
Format : AC-3
Format/Info : Audio Coding 3
Mode extension : CM (complete main)
Format settings, Endianness : Big
Codec ID : A_AC3
Duration : 1 h 23 min
Bit rate mode : Constant
Bit rate : 192 kb/s
Channel(s) : 2 channels
Channel positions : Front: L R
Sampling rate : 48.0 kHz
Frame rate : 31.250 FPS (1536 spf)
Bit depth : 16 bits
Compression mode : Lossy
Stream size : 114 MiB (4%)
Title : MOV | НТН
Language : Ukrainian
Default : Yes
Forced : Yes

Audio #2
ID : 3
Format : AC-3
Format/Info : Audio Coding 3
Mode extension : CM (complete main)
Format settings, Endianness : Big
Codec ID : A_AC3
Duration : 1 h 23 min
Bit rate mode : Constant
Bit rate : 384 kb/s
Channel(s) : 6 channels
Channel positions : Front: L C R, Side: L R, LFE
Sampling rate : 48.0 kHz
Frame rate : 31.250 FPS (1536 spf)
Bit depth : 16 bits
Compression mode : Lossy
Stream size : 229 MiB (8%)
Title : Original
Language : English
Default : No
Forced : No
Перелік серій
01. Жити далі
02. Але я не вона
03. Преображення
04. Сім'я
05. Аляска
Скріншоти:


Автор запису/зведення: sergiyko



Бронзовий реліз (на рейтинг впливає 75% завантаженого)
 Трекер:    Зареєстрований   

Завантажити / скачати серіал українською



відео для новачків



 Зареєстрований:   2017-04-22 14:38
 Розмір:   16.82 GB 
 Оцінка серіалу:   8.7/10 (Голосів: 30)
   
leicheman 
Відео Гуртом - фільмокрай
Відео Гуртом - фільмокрай


З нами з: 03.07.14
Востаннє: 04.12.20
Повідомлень: 5707

2017-03-09 16:12  
3й сезон така мурня і добре, що закрили його.
staf777 
Відео Гуртом - підтримка та поширення
Відео Гуртом - підтримка та поширення


З нами з: 16.11.16
Востаннє: 04.12.20
Повідомлень: 4605

2017-03-09 18:52  
2 серії з 13 усі серії будуть?
OL3X 
VIP


З нами з: 25.11.15
Востаннє: 03.12.20
Повідомлень: 459

2017-03-09 20:03  
Третій сезон не дуже (хоча Стівен Кінґ теж брав участь у створенні),
Але добре те, що всі сезони будуть українською.

11FrYkT 
Модератор відео


З нами з: 20.02.11
Востаннє: 04.12.20
Повідомлень: 7051

2017-03-09 23:46  
sergiyko.5 , додайте перелік серій
famous37 
Відео Гуртом - фільмокрай
Відео Гуртом - фільмокрай


З нами з: 16.11.08
Востаннє: 26.11.20
Повідомлень: 957

2017-03-10 11:04  
Шкода, що заморозили проект. Подобається цей серіал!
sergiyko.5 
Забанено
Забанено


З нами з: 25.02.16
Востаннє: 29.10.20
Повідомлень: 3650

2017-03-23 17:46  
Торент оновлено. Додана 3-5 серії.
Konoplia86 
Новенький


З нами з: 15.11.16
Востаннє: 04.10.20
Повідомлень: 21

2017-03-29 06:43  
Решта серій буде?
Darwin 
Поважний учасник


З нами з: 25.05.09
Востаннє: 04.12.20
Повідомлень: 221

2017-04-13 20:26  
Буде продовження?
sergiyko.5 
Забанено
Забанено


З нами з: 25.02.16
Востаннє: 29.10.20
Повідомлень: 3650

2017-04-22 14:41  
Додав серії до повного третього сезону. Приємного перегляду!
piznajko 
Відео Гуртом - субтитрування
Відео Гуртом - субтитрування


З нами з: 24.02.09
Востаннє: 17.11.20
Повідомлень: 2197

2017-04-22 18:07  
sergiyko.5 написано:
Додав серії до повного третього сезону. Приємного перегляду!

Буде реліз AVC всіх 3-ох сехонів однією роздачею? До речі вже є Blu-ray'ї до всіх трьох сезонів. Дякую!

sergiyko.5 
Забанено
Забанено


З нами з: 25.02.16
Востаннє: 29.10.20
Повідомлень: 3650

2017-04-23 16:36  
piznajko написано:
Буде реліз AVC всіх 3-ох сехонів однією роздачею?


Не планував.

Alex Lee 
Новенький


З нами з: 05.05.11
Востаннє: 03.12.20
Повідомлень: 1

2017-06-23 16:35  
скріншоти варто було б приховати під спойлер!
Dark Invader 
Модератор відео


З нами з: 06.01.11
Востаннє: 04.12.20
Повідомлень: 3010

2017-06-23 19:03  
Alex Lee написано:
скріншоти варто було б приховати під спойлер!

Чому б це?

Ваш часовий пояс: GMT + 2 Години

Нова тема   Відповісти