Віплала / Wiplala (2014) 720p Ukr/Dut | Sub Eng

Нові коментарі

Нова тема   Відповісти
Автор Повідомлення
Anonymous 







2017-03-09 11:32  
Віплала / Wiplala (2014) 720p Ukr/Dut | Sub Eng

Віплала / Wiplala (2014) 720p Ukr/Dut | Sub Eng

Альтернативний постер


повнорозмірні зображення відкриються по кліку (з натиснутим CTRL чи кліком середньою кнопкою мишки - у новій вкладці)


Жанр: сімейний, пригоди, фентезі
Країна: Нідерланди



Кінокомпанія: Bos Bros. Film & TV Productions, Mollywood, Samsa Film
Режисер: Тім Оліхоек / Tim Oliehoek
Актори: Саша Міланус / Sasha Mylanus, Петер Пауль Мюллер / Peter Paul Muller, Геза Вайз / Geza Weisz, Кее Кетелаар / Kee Ketelaar, Як Воутерсе / Jack Wouterse, Петер Ван ден Бегін / Peter Van den Begin, Кес Яансен / Cas Jansen, Ганс Кестінг / Hans Kesting, Рене Гротхоф / René Groothof, Манушка Зегелар-Бревелд / Manoushka Zeegelaar-Breeveld та інші

Сюжет:
Пригоди на тебе можуть чекати де завгодно. Семирічного Йоханнеса вони знаходять у кухонній шафі, адже сам там він натрапляє на маленького чоловічка. Виявляється, що це не гном, не лепрекон, не гобіт, а Віплала. Як і всі інші представники його крихітного роду, він володіє спеціальними чарами – може заблимувати, тобто обертати на камінь або зменшувати все навколо. Але оскільки він недостатньо добре вчився, то він може зачаровувати лише в одному напрямку. Про це Йоханнес та його сестра Нелла Делла не встигають попередити свого тата до того, як той попросив чоловічка витягнути їх з неприємної ситуації. Бо неприємності й пригоди для їхньої родини ще навіть не починалися…

Український трейлер


Тривалість: 01:40:19
Якість: 720p [Hurtom]
Відео:
кодек:
розмір кадру: 1280 х 536
бітрейт: 3122 Кбіт/с [crf=17]

Аудіо # 1:
мова: українська
переклад: одноголосий закадровий | Герман Лукич студіо
кодек: 5.1
бітрейт: 256 кбіт/с

Аудіо # 2:
мова: нідерландська
переклад: оригінал
кодек: 5.1
бітрейт: 448 кбіт/с

Субтитри :
мова: англійська
тип: програмні (м'які)
формат: *.srt

Збережено оригінальні розділи, як на Blu-ray
Info та log
Код:
Format                      :
Format version              : Version 4 / Version 2
File size                   : 2.68 GiB
Duration                    : 1 h 40 min
Overall bit rate            : 3 825 kb/s

Video
ID                          : 1
Format                      : AVC
Format/Info                 : Advanced Video Codec
Format profile              : [email protected]
Format settings, CABAC      : Yes
Format settings, ReFrames   : 12 frames
Codec ID                    : V_MPEG4/ISO/AVC
Duration                    : 1 h 40 min
Bit rate                    : 3 122 kb/s
Width                       : 1 280 pixels
Height                      : 536 pixels
Display aspect ratio        : 2.40:1
Frame rate mode             : Constant
Frame rate                  : 24.000 FPS
Color space                 : YUV
Chroma subsampling          : 4:2:0
Bit depth                   : 8 bits
Scan type                   : Progressive
Bits/(Pixel*Frame)          : 0.190
Stream size                 : 2.19 GiB (82%)
Title                       : Віплала / Wiplala (2014) 720p [Hurtom-igor911]
Writing library             : core 148 r2705 3f5ed56
Encoding settings           : cabac=1 / ref=12 / deblock=1:-1:-1 / analyse=0x3:0x133 / me=umh / subme=11 / psy=1 / psy_rd=1.00:0.15 / mixed_ref=1 / me_range=32 / chroma_me=1 / trellis=2 / 8x8dct=1 / cqm=0 / deadzone=21,11 / fast_pskip=0 / chroma_qp_offset=-3 / threads=12 / lookahead_threads=2 / sliced_threads=0 / nr=0 / decimate=1 / interlaced=0 / bluray_compat=0 / constrained_intra=0 / bframes=8 / b_pyramid=2 / b_adapt=2 / b_bias=0 / direct=3 / weightb=1 / open_gop=0 / weightp=2 / keyint=240 / keyint_min=24 / scenecut=40 / intra_refresh=0 / rc_lookahead=60 / rc=crf / mbtree=1 / crf=17.0 / qcomp=0.60 / qpmin=0 / qpmax=69 / qpstep=4 / vbv_maxrate=62500 / vbv_bufsize=78125 / crf_max=0.0 / nal_hrd=none / filler=0 / ip_ratio=1.40 / aq=1:1.00
Language                    : English
Default                     : Yes
Forced                      : No

Audio #1
ID                          : 2
Format                      :
Format/Info                 : Advanced Audio Codec
Format profile              : LC
Codec ID                    : A_AAC
Duration                    : 1 h 40 min
Bit rate                    : 254 kb/s
Channel(s)                  : 6 channels
Channel positions           : Front: L C R, Side: L R, LFE
Sampling rate               : 44.1 kHz
Frame rate                  : 43.066 FPS (1024 spf)
Compression mode            : Lossy
Stream size                 : 182 MiB (7%)
Title                       : AVO [Herman Lukych studio] 5.1 256 Kbps [Hurtom-1101]
Language                    : Ukrainian
Default                     : Yes
Forced                      : Yes

Audio #2
ID                          : 3
Format                      : AC-3
Format/Info                 : Audio Coding 3
Format settings, Endianness : Big
Codec ID                    : A_AC3
Duration                    : 1 h 40 min
Bit rate mode               : Constant
Bit rate                    : 448 kb/s
Channel(s)                  : 6 channels
Channel positions           : Front: L C R, Side: L R, LFE
Sampling rate               : 48.0 kHz
Frame rate                  : 31.250 FPS (1536 spf)
Bit depth                   : 16 bits
Compression mode            : Lossy
Stream size                 : 321 MiB (12%)
Title                       : Original, 5.1 448 Kbps
Language                    : Dutch
Service kind                : Complete Main
Default                     : No
Forced                      : No

Text
ID                          : 4
Format                      : UTF-8
Codec ID                    : S_TEXT/UTF8
Codec ID/Info               : UTF-8 Plain Text
Duration                    : 1 h 29 min
Bit rate                    : 32 b/s
Count of elements           : 662
Stream size                 : 21.4 KiB (0%)
Title                       : Eng full
Language                    : English
Default                     : No
Forced                      : No

Menu
00:00:00.000                : en:(01)00:00:00:000
00:09:53.083                : en:(02)00:09:53:083
00:19:35.041                : en:(03)00:19:35:041
00:30:13.000                : en:(04)00:30:13:000
00:40:27.000                : en:(05)00:40:27:000
00:51:18.666                : en:(06)00:51:18:666
01:00:23.041                : en:(07)01:00:23:041
01:11:26.000                : en:(08)01:11:26:000
01:19:37.000                : en:(09)01:19:37:000
01:29:06.416                : en:(10)01:29:06:416
01:33:32.208                : en:(11)01:33:32:208
01:40:19.000                : en:(12)01:40:19:000


Код:
raw  [info]: 1280x536p 1:1 @ 24/1 fps (cfr)
[info]: using SAR=1/1
[info]: using cpu capabilities: MMX2 SSE2Fast SSSE3 SSE4.2 AVX
[info]: profile High, level 4.1
[info]: frame I:1643  Avg QP:13.73  size:126607
[info]: frame P:31559 Avg QP:17.66  size: 35415
[info]: frame B:111254 Avg QP:20.29  size:  9200
[info]: consecutive B-frames:  2.6%  2.6%  7.8% 20.2% 16.6% 41.6%  7.6%  0.5%  0.5%
[info]: mb I  I16..4: 12.1% 61.3% 26.5%
[info]: mb P  I16..4:  2.0% 10.7%  1.9%  P16..4: 30.0% 32.0% 12.3%  3.1%  0.6%    skip: 7.3%
[info]: mb B  I16..4:  0.4%  1.4%  0.2%  B16..8: 31.6% 16.1%  2.2%  direct: 5.8%  skip:42.4%  L0:41.5% L1:43.0% BI:15.5%
[info]: 8x8 transform intra:70.6% inter:58.1%
[info]: direct mvs  spatial:100.0% temporal:0.0%
[info]: coded y,uvDC,uvAC intra: 78.8% 85.8% 64.0% inter: 19.1% 26.8% 9.8%
[info]: i16 v,h,dc,p: 13% 27%  7% 53%
[info]: i8 v,h,dc,ddl,ddr,vr,hd,vl,hu: 11% 10%  9%  9% 11% 12% 12% 12% 14%
[info]: i4 v,h,dc,ddl,ddr,vr,hd,vl,hu: 15% 17%  7%  7% 11% 11% 11%  9% 11%
[info]: i8c dc,h,v,p: 39% 26% 17% 18%
[info]: Weighted P-Frames: Y:2.9% UV:2.0%
[info]: ref P L0: 49.8% 10.4% 17.1%  5.3%  4.9%  3.1%  3.1%  1.5%  1.5%  1.1%  1.2%  1.0%  0.0%  0.0%
[info]: ref B L0: 79.8%  8.9%  4.0%  2.0%  1.5%  1.2%  1.0%  0.6%  0.5%  0.3%  0.1%
[info]: ref B L1: 96.1%  3.9%
[info]: kb/s:3122.40
encoded 144456 frames, 10.11 fps, 3122.40 kb/s
Ще трохи скріншотів


Джерело: &
Подяка за українську доріжку п.1101

Особиста оцінка: 10 - рекомендую всім дітям та їх батькам


Авторський реліз (завантажувати можна без реєстрації)
 Трекер:    Зареєстрований   

Завантажити / скачати фільм українською



відео для новачків



 Зареєстрований:   2017-03-09 12:15
 Розмір:   2.68 GB 
 Оцінка фільму:   3.7/10 (Голосів: 15)
   
Інші релізи
   Віплала / Wiplala (2014) AVC Ukr/Dut | Sub Eng igor911  3 / 0   1.85 GB   2017-02-20 16:21 
   Віплала / Wiplala (2014) igor911  7 / 0   1.45 GB   2017-02-20 15:01 
   Віплала / Wiplala (2014) 1080p Ukr/Nld 1101  3 / 0   11.43 GB   2015-12-28 18:46 
Ваш часовий пояс: GMT + 2 Години

Нова тема   Відповісти