Софія Прекрасна: Елен і Таємниця Авалора / Elena and the Secret of Avalor (2016) 1080p Ukr/Eng

Нові коментарі

Нова тема   Відповісти
Автор Повідомлення
sergiyko.5 
VIP


З нами з: 25.02.16
Востаннє: 17.08.17
Повідомлень: 986

2017-03-09 01:22  
Софія Прекрасна: Елен і Таємниця Авалора / Elena and the Secret of Avalor (2016) 1080p Ukr/Eng

Софія Прекрасна: Елен і Таємниця Авалора / Elena and the Secret of Avalor (2016) 1080p Ukr/Eng

Жанр: мультсеріал, пригоди, комедія
Країна: США
Кінокомпанія: Disney Television Animation
Режисер: Джеймі Мітчелл
Актори: Еймі Карерро, Аріель Вінтер

Сюжет:
Під час останнього заняття у школі, принцесі Софії наснився сон наяву. У таємній бібліотеці від чаклуна Алаказара вона дізналася, що її амулет дивно блимав, бо колись зла чаклунка ув'язнила у ньому дівчину з далекого королівства — Елен, принцесу Авалора. Відважній Софії доведеться докласти чимало зусиль, щоб звільнити Елен, проте вона не буде сама, адже такі нові друзі, як онук мага — Матео та чарівні істоти — ягукрили (крилаті ягуари) також хочуть допомогти відновити справедливість у своєму королівстві та жити у мирі й злагоді, як у давні часи.




Тривалість: 01:00:32
Якість:

Відео: кодек: розмір кадру: 1920 х 1080 бітрейт: 5000 кб/с
Аудіо # 1: мова: українська переклад: професійний дубльований кодек: 2.0 бітрейт: 192 кб/с
Аудіо # 2: мова: англійська переклад: оригінал кодек: 5.1 бітрейт: 384 кб/с
Джерело озвучення:
Інформація про файл:
General
Unique ID : 239076063501401125063352745675282932372 (0xB3DC5FFDED1F8666986D0F1F7E076294)
Complete name : E:\MULTFILMS\Elena.and.the.Secret.of.Avalor.2016.1080p..Ukr.Eng.
Format :
Format version : Version 4 / Version 2
File size : 2.40 GiB
Duration : 1h 0mn
Overall bit rate : 5 668 Kbps
Movie name : Elena.and.the.Secret.of.Avalor.2016 by sergiyko
Encoded date : UTC 2017-03-08 22:16:43
Writing application : mkvmerge v9.8.0 ('Kuglblids') 64bit
Writing library : libebml v1.3.4 + libmatroska v1.4.5

Video
ID : 1
Format : AVC
Format/Info : Advanced Video Codec
Format profile : High@L4
Format settings, CABAC : Yes
Format settings, ReFrames : 4 frames
Codec ID : V_MPEG4/ISO/AVC
Duration : 1h 0mn
Bit rate : 4 979 Kbps
Width : 1 920 pixels
Height : 1 080 pixels
Display aspect ratio : 16:9
Frame rate mode : Constant
Frame rate : 23.976 fps
Color space : YUV
Chroma subsampling : 4:2:0
Bit depth : 8 bits
Scan type : Progressive
Bits/(Pixel*Frame) : 0.100
Stream size : 2.11 GiB (88%)
Title : Elena and the Secret of Avalor
Language : English
Default : Yes
Forced : No
Color range : Limited
Color primaries : BT.709
Transfer characteristics : BT.709
Matrix coefficients : BT.709
DURATION : 01:00:31.795000000
NUMBER_OF_FRAMES : 87076
NUMBER_OF_BYTES : 2310727624
_STATISTICS_WRITING_APP : mkvmerge v9.8.0 ('Kuglblids') 64bit
_STATISTICS_WRITING_DATE_UTC : 2017-03-08 22:16:43
_STATISTICS_TAGS : BPS DURATION NUMBER_OF_FRAMES NUMBER_OF_BYTES

Audio #1
ID : 2
Format : AC-3
Format/Info : Audio Coding 3
Mode extension : CM (complete main)
Format settings, Endianness : Big
Codec ID : A_AC3
Duration : 1h 0mn
Bit rate mode : Constant
Bit rate : 192 Kbps
Channel(s) : 2 channels
Channel positions : Front: L R
Sampling rate : 48.0 KHz
Compression mode : Lossy
Stream size : 83.1 MiB (3%)
Title : DUB | ПлюсПлюс
Language : Ukrainian
Default : Yes
Forced : Yes
DURATION : 01:00:31.776000000
NUMBER_OF_FRAMES : 113493
NUMBER_OF_BYTES : 87162624
_STATISTICS_WRITING_APP : mkvmerge v9.8.0 ('Kuglblids') 64bit
_STATISTICS_WRITING_DATE_UTC : 2017-03-08 22:16:43
_STATISTICS_TAGS : BPS DURATION NUMBER_OF_FRAMES NUMBER_OF_BYTES

Audio #2
ID : 3
Format : AC-3
Format/Info : Audio Coding 3
Mode extension : CM (complete main)
Format settings, Endianness : Big
Codec ID : A_AC3
Duration : 1h 0mn
Bit rate mode : Constant
Bit rate : 384 Kbps
Channel(s) : 6 channels
Channel positions : Front: L C R, Side: L R, LFE
Sampling rate : 48.0 KHz
Compression mode : Lossy
Stream size : 166 MiB (7%)
Title : Original
Language : English
Default : No
Forced : No
DURATION : 01:00:31.776000000
NUMBER_OF_FRAMES : 113493
NUMBER_OF_BYTES : 174325248
_STATISTICS_WRITING_APP : mkvmerge v9.8.0 ('Kuglblids') 64bit
_STATISTICS_WRITING_DATE_UTC : 2017-03-08 22:16:43
_STATISTICS_TAGS : BPS DURATION NUMBER_OF_FRAMES NUMBER_OF_BYTES
Скріншоти:


Автор запису/зведення: sergiyko


 Трекер:    Зареєстрований   

Завантажити / скачати мультфільм українською



відео для новачків



 Зареєстрований:   2017-03-09 01:22
 Розмір:   2.4 GB 
 Оцінка мультфільму:   9.9/10 (Голосів: 13)
   
romkop 
Новенький


З нами з: 26.05.09
Востаннє: 10.08.17
Повідомлень: 20

2017-03-11 02:46  
Ото вже моїй малій буде радість :о)))) Дякую!
Uberwinder 
Свій


З нами з: 18.11.16
Востаннє: 16.08.17
Повідомлень: 110

2017-07-07 07:15  
Непоганий дитячий мультфільм, дякую!
Ваш часовий пояс: GMT + 2 Години

Нова тема   Відповісти