Ножиці / Scissors (1991) 720p Ukr/Eng | Sub Eng

Нові коментарі

Нова тема   Відповісти
Автор Повідомлення
staf777 
Відео Гуртом - підтримка та поширення
Відео Гуртом - підтримка та поширення


З нами з: 16.11.16
Востаннє: 11.09.17
Повідомлень: 522

2017-03-08 13:35  
Ножиці / Scissors (1991) 720p Ukr/Eng | Sub Eng

Ножиці / Scissors (1991) 720p Ukr/Eng | Sub Eng
Оригінальна обкладинка

Ножиці / Scissors (1991) 720p Ukr/Eng | Sub Eng
Жанр: психологічний трилер
Країна: США



Кінокомпанія: DDM Film Corporation
Режисер: Френк Де Фелітта
Актори: Шерон Стоун, Стів Рейлсбек, Ронні Кокс, Мішель Філліпс, Вікі Фредерік, Лірі Мосс, Остін Келлі

Сюжет:
Молода жінка Енджи Андерсон стає жертвою психопата, який нападає на неї в ліфті. Енджи залишається живою, але найглибша емоційна травма змінює її відношення до світу й згодом не минає, а трансформується в параною. Її психоаналітик намагається допомогти Енджи повернутися до буденного життя.

Незабаром після нападу Енджи знайомиться зі своїми сусідами, братами-близнюками Алексом і Коулом Морганами. Один із братів зберігає страшний секрет, а другий закохується в Енджи. Знайомство із братами виявиться для неї фатальним.

Дівчина одержує запрошення в таємничу квартиру. Коли вона опиняється в цьому місці, то з жахом виявляє, що є замкненою в диявольській пастці, заповненою всіма її підсвідомими страхами.


Тривалість: 01:41:44
Якість: 720p
Відео:
кодек:
розмір кадру: 1280x692
бітрейт: 14621 кб/с

Аудіо # 1:
мова: українська
переклад: двоголосий закадровий
кодек: 2.0
бітрейт: 192 кб/с
Переклад і озвучення виконано: , трансляція каналу

Аудіо # 2:
мова: англійська
переклад: оригінал
кодек: FLAC 2.0
бітрейт: 487 кб/с

Субтитри:
мова: англійська
тип: програмні (м'які)
формат: *.srt
Info
General
Unique ID : 180623463330293129612183512712799118067 (0x87E2D04C971933FABE09D7C478D8E2F3)
Complete name : P:\HD українською » Фільми в HD\Трилер\Scissors (1991) [Ukr,Eng sub.Eng] 720p [Hurtom].
Format :
Format version : Version 4 / Version 2
File size : 11.3 GiB
Duration : 1 h 45 min
Overall bit rate mode : Variable
Overall bit rate : 15.3 Mb/s
Movie name : Scissors (1991) [Ukr,Eng sub.Eng] 720p [Hurtom]
Encoded date : UTC 2017-03-08 13:30:25
Writing application : mkvmerge v9.8.0 ('Kuglblids') 64bit
Writing library : libebml v1.3.4 + libmatroska v1.4.5
Cover : Yes
Attachments : cover.jpg

Video
ID : 1
Format : AVC
Format/Info : Advanced Video Codec
Format profile : [email protected]
Format settings, CABAC : Yes
Format settings, ReFrames : 9 frames
Codec ID : V_MPEG4/ISO/AVC
Duration : 1 h 45 min
Bit rate : 14.6 Mb/s
Width : 1 280 pixels
Height : 692 pixels
Display aspect ratio : 1.85:1
Frame rate mode : Constant
Frame rate : 23.976 (24000/1001) FPS
Color space : YUV
Chroma subsampling : 4:2:0
Bit depth : 8 bits
Scan type : Progressive
Bits/(Pixel*Frame) : 0.688
Stream size : 10.8 GiB (96%)
Writing library : core 148 r2762+56 6284cf3 t_mod_Custom [[email protected] X86_64]
Encoding settings : cabac=1 / ref=9 / deblock=1:-3:-3 / analyse=0x3:0x133 / me=umh / subme=10 / psy=1 / fade_compensate=0.00 / psy_rd=1.00:0.05 / mixed_ref=1 / me_range=32 / chroma_me=1 / trellis=2 / 8x8dct=1 / cqm=0 / deadzone=21,11 / fast_pskip=0 / chroma_qp_offset=-3 / threads=6 / lookahead_threads=1 / sliced_threads=0 / nr=0 / decimate=1 / interlaced=0 / bluray_compat=0 / constrained_intra=0 / fgo=0 / bframes=10 / b_pyramid=2 / b_adapt=2 / b_bias=0 / direct=3 / weightb=1 / open_gop=0 / weightp=2 / keyint=250 / keyint_min=23 / scenecut=40 / intra_refresh=0 / rc_lookahead=60 / rc=crf / mbtree=0 / crf=17.0000 / qcomp=0.55 / qpmin=0:0:0 / qpmax=69:69:69 / qpstep=4 / vbv_maxrate=62500 / vbv_bufsize=78125 / crf_max=0.0 / nal_hrd=none / filler=0 / ip_ratio=1.30 / pb_ratio=1.20 / aq=1:0.65 / aq-sensitivity=10.00 / aq-factor=1.00:1.00:1.00 / aq2=1:0.60 / aq2-sensitivity=15.00 / aq2-factor=1.00:1.00:1.00 / aq3=1:[0.55:0.55]:[0.55:0.55]:[0.55:0.55]:[0.55:0.55] / aq3-sensitivity=10.00 / aq3-factor=[1.00:1.00]:[1.00:1.00]:[1.00:1.00] / aq3-boundary=192:64:24
Language : English
Default : Yes
Forced : No
Color range : Limited
Color primaries : BT.709
Transfer characteristics : BT.709
Matrix coefficients : BT.709

Audio #1
ID : 2
Format : AC-3
Format/Info : Audio Coding 3
Mode extension : CM (complete main)
Format settings, Endianness : Big
Codec ID : A_AC3
Duration : 1 h 45 min
Bit rate mode : Constant
Bit rate : 192 kb/s
Channel(s) : 2 channels
Channel positions : Front: L R
Sampling rate : 48.0 kHz
Frame rate : 31.250 FPS (1536 spf)
Bit depth : 16 bits
Compression mode : Lossy
Stream size : 145 MiB (1%)
Title : UA-DVO, KIHO
Language : Ukrainian
Default : Yes
Forced : Yes

Audio #2
ID : 3
Format : FLAC
Format/Info : Free Lossless Audio Codec
Codec ID : A_FLAC
Duration : 1 h 45 min
Bit rate mode : Variable
Bit rate : 487 kb/s
Channel(s) : 2 channels
Channel positions : Front: L R
Sampling rate : 48.0 kHz
Frame rate : 11.719 FPS (4096 spf)
Bit depth : 16 bits
Stream size : 369 MiB (3%)
Writing library : libFLAC 1.2.1 (UTC 2007-09-17)
Language : English
Default : No
Forced : No

Text
ID : 4
Format : UTF-8
Codec ID : S_TEXT/UTF8
Codec ID/Info : UTF-8 Plain Text
Duration : 1 h 41 min
Bit rate : 31 b/s
Count of elements : 577
Stream size : 23.5 KiB (0%)
Language : English
Default : No
Forced : No

Menu
00:00:00.000 : en:00:00:00.000
00:13:36.981 : en:00:13:36.981
00:30:43.048 : en:00:30:43.048
00:42:45.353 : en:00:42:45.353
00:57:17.474 : en:00:57:17.474
01:12:30.720 : en:01:12:30.720
01:25:19.988 : en:01:25:19.988
01:32:55.360 : en:01:32:55.360
01:45:00.585 : en:01:45:00.585
Скріншоти



Подяка за наданий запис звуку Hulk1987 та rooster за зведення

Джерело: &
Особиста оцінка: 8 - мені сподобалося
Ножиці / Scissors (1991) 720p Ukr/Eng | Sub Eng


Срібний реліз (на рейтинг впливає 50% завантаженого)
 Трекер:    Зареєстрований   

Завантажити / скачати фільм українською



відео для новачків



 Зареєстрований:   2017-03-08 17:19
 Розмір:   11.31 GB 
 Оцінка фільму:   7/10 (Голосів: 3)
   
Інші релізи
   Ножиці / Scissors (1991) Ukr/Eng rooster  2 / 0   2.19 GB   2010-10-16 02:11 
igor911 
Відео Гуртом
Відео Гуртом


З нами з: 18.01.08
Востаннє: 20.10.17
Повідомлень: 7917

2017-03-09 23:30  
staf777, додай медіаінфо та вкажи, хто звів укр.звук.
staf777 
Відео Гуртом - підтримка та поширення
Відео Гуртом - підтримка та поширення


З нами з: 16.11.16
Востаннє: 11.09.17
Повідомлень: 522

2017-03-10 09:25  
Info провтикав - оформляв три реліза одразу і як завжди десь щось забув
Ваш часовий пояс: GMT + 2 Години

Нова тема   Відповісти