89-а Церемонія Вручення Премії «Оскар» / The 89th Annual Academy Awards (2017) AVC 720p 50fps Ukr/Eng

Нові коментарі

Нова тема   Відповісти
Останній раз роздавалося ostinlviv (2017-06-20)
Автор Повідомлення
ostinlviv 
Новенький


З нами з: 07.12.08
Востаннє: 12.08.17
Повідомлень: 15

2017-03-07 16:56  
89-а Церемонія Вручення Премії «Оскар» / The 89th Annual Academy Awards (2017) AVC 720p 50fps Ukr/Eng

89-а Церемонія Вручення Премії «Оскар» / The 89th Annual Academy Awards (2017) AVC 720p 50fps Ukr/Eng


Жанр: Кінопремія
Країна: США

Телеканал: ABC / ТРК Україна
Опис:
89-та церемонія вручення нагород премії «Оскар» за досягнення в галузі кінематографу за 2016 рік відбулася 26 лютого 2017 року в театрі «Долбі» в Лос-Анджелесі.
The 89th Annual Academy Awards
Тривалість: 03:04:53
Якість:
Відео:
кодек:
розмір кадру: 1280 х 720
бітрейт: 3489 кб/с

Аудіо # 1:
мова: українська
переклад: двоголосий закадровий
кодек: MP3
бітрейт: 128 кб/с

Аудіо # 2:
мова: англійська
переклад: оригінал
кодек: MP2
бітрейт: 224 кб/с

Аудіо # 3:
мова: англійська
переклад: оригінал
кодек: 5.1
бітрейт: 640 кб/с
Скріншоти


Info

General
Unique ID : 239312352157998301840042020376063733753 (0xB409E1EC1016E8E1A3273A6724DB6FF9)
Complete name : D:\torrent\The.89th.Annual.Academy.Awards.2017\The.89th.Annual.Academy.Awards.2017.720p..Ukr.Eng.
Format :
Format version : Version 4 / Version 2
File size : 5.79 GiB
Duration : 3h 4mn
Overall bit rate : 4 484 Kbps
Encoded date : UTC 2017-03-06 20:14:29
Writing application : mkvmerge v9.9.0 ('Pick Up') 64bit
Writing library : libebml v1.3.4 + libmatroska v1.4.5

Video
ID : 1
Format : AVC
Format/Info : Advanced Video Codec
Format profile : [email protected]
Format settings, CABAC : Yes
Format settings, ReFrames : 9 frames
Codec ID : V_MPEG4/ISO/AVC
Duration : 3h 4mn
Bit rate : 3 489 Kbps
Width : 1 280 pixels
Height : 720 pixels
Display aspect ratio : 16:9
Frame rate mode : Constant
Frame rate : 50.000 fps
Color space : YUV
Chroma subsampling : 4:2:0
Bit depth : 8 bits
Scan type : Progressive
Bits/(Pixel*Frame) : 0.076
Stream size : 4.51 GiB (78%)
Writing library : core 148 r2705 3f5ed56
Encoding settings : cabac=1 / ref=9 / deblock=1:-1:-1 / analyse=0x3:0x133 / me=umh / subme=10 / psy=1 / psy_rd=1.00:0.00 / mixed_ref=1 / me_range=24 / chroma_me=1 / trellis=2 / 8x8dct=1 / cqm=0 / deadzone=21,11 / fast_pskip=1 / chroma_qp_offset=-2 / threads=12 / lookahead_threads=2 / sliced_threads=0 / nr=0 / decimate=1 / interlaced=0 / bluray_compat=0 / constrained_intra=0 / bframes=8 / b_pyramid=2 / b_adapt=2 / b_bias=0 / direct=3 / weightb=1 / open_gop=0 / weightp=2 / keyint=500 / keyint_min=50 / scenecut=40 / intra_refresh=0 / rc_lookahead=60 / rc=crf / mbtree=1 / crf=18.0 / qcomp=0.60 / qpmin=0 / qpmax=69 / qpstep=4 / ip_ratio=1.40 / aq=1:1.00
Language : English
Default : Yes
Forced : No

Audio #1
ID : 2
Format : MPEG Audio
Format version : Version 1
Format profile : Layer 3
Mode : Joint stereo
Mode extension : MS Stereo
Codec ID : A_MPEG/L3
Codec ID/Hint : MP3
Duration : 3h 4mn
Bit rate mode : Constant
Bit rate : 128 Kbps
Channel(s) : 2 channels
Sampling rate : 44.1 KHz
Frame rate : 38.281 fps (1152 spf)
Compression mode : Lossy
Stream size : 169 MiB (3%)
Language : Ukrainian
Default : Yes
Forced : No

Audio #2
ID : 3
Format : MPEG Audio
Format version : Version 1
Format profile : Layer 2
Codec ID : A_MPEG/L2
Codec ID/Hint : MP2
Duration : 3h 4mn
Bit rate mode : Constant
Bit rate : 224 Kbps
Channel(s) : 2 channels
Sampling rate : 48.0 KHz
Frame rate : 41.667 fps (1152 spf)
Compression mode : Lossy
Delay relative to video : 8ms
Stream size : 296 MiB (5%)
Language : English
Default : No
Forced : No

Audio #3
ID : 4
Format : AC-3
Format/Info : Audio Coding 3
Mode extension : CM (complete main)
Format settings, Endianness : Big
Codec ID : A_AC3
Duration : 3h 4mn
Bit rate mode : Constant
Bit rate : 640 Kbps
Channel(s) : 6 channels
Channel positions : Front: L C R, Side: L R, LFE
Sampling rate : 48.0 KHz
Frame rate : 31.250 fps (1536 spf)
Compression mode : Lossy
Stream size : 846 MiB (14%)
Language : English
Default : No
Forced : No
Oscars Opening Ceremony: Live From the Red Carpet
Тривалість: 01:01:57
Якість:
Відео:
кодек:
розмір кадру: 1280 х 720
бітрейт: 5298 кб/с

Аудіо # 1:
мова: українська
переклад: двоголосий закадровий
кодек: MP3
бітрейт: 128 кб/с

Аудіо # 2:
мова: англійська
переклад: оригінал
кодек: MP2
бітрейт: 224 кб/с
Скріншоти


Info

General
Unique ID : 191594939707305180632913500424493825934 (0x9023D7D92C1D1AAD8468861FE07F7F8E)
Complete name : D:\torrent\The.89th.Annual.Academy.Awards.2017\Oscars.Red.Carpet.Live.2017.720p..Ukr.Eng.
Format :
Format version : Version 4 / Version 2
File size : 2.45 GiB
Duration : 1h 1mn
Overall bit rate : 5 654 Kbps
Encoded date : UTC 2017-03-06 20:06:43
Writing application : mkvmerge v9.9.0 ('Pick Up') 64bit
Writing library : libebml v1.3.4 + libmatroska v1.4.5

Video
ID : 1
Format : AVC
Format/Info : Advanced Video Codec
Format profile : [email protected]
Format settings, CABAC : Yes
Format settings, ReFrames : 9 frames
Codec ID : V_MPEG4/ISO/AVC
Duration : 1h 1mn
Bit rate : 5 298 Kbps
Width : 1 280 pixels
Height : 720 pixels
Display aspect ratio : 16:9
Frame rate mode : Constant
Frame rate : 50.000 fps
Color space : YUV
Chroma subsampling : 4:2:0
Bit depth : 8 bits
Scan type : Progressive
Bits/(Pixel*Frame) : 0.115
Stream size : 2.29 GiB (94%)
Language : English
Default : Yes
Forced : No

Audio #1
ID : 2
Format : MPEG Audio
Format version : Version 1
Format profile : Layer 3
Mode : Joint stereo
Mode extension : MS Stereo
Codec ID : A_MPEG/L3
Codec ID/Hint : MP3
Duration : 1h 1mn
Bit rate mode : Constant
Bit rate : 128 Kbps
Channel(s) : 2 channels
Sampling rate : 48.0 KHz
Frame rate : 41.667 fps (1152 spf)
Compression mode : Lossy
Stream size : 56.7 MiB (2%)
Language : Ukrainian
Default : Yes
Forced : No

Audio #2
ID : 3
Format : MPEG Audio
Format version : Version 1
Format profile : Layer 2
Codec ID : A_MPEG/L2
Codec ID/Hint : MP2
Duration : 1h 1mn
Bit rate mode : Constant
Bit rate : 224 Kbps
Channel(s) : 2 channels
Sampling rate : 48.0 KHz
Frame rate : 41.667 fps (1152 spf)
Compression mode : Lossy
Delay relative to video : 4ms
Stream size : 99.3 MiB (4%)
Language : English
Default : No
Forced : No
Джерело: &
Особиста оцінка: 8 - мені сподобалося


Бронзовий реліз (на рейтинг впливає 75% завантаженого)
 Трекер:    Зареєстрований   

Завантажити / скачати передачу українською



відео для новачків



 Зареєстрований:   2017-03-07 16:56
 Розмір:   8.24 GB 
 Оцінка передачі:   8.7/10 (Голосів: 7)
   
Patriot_ukr 
VIP


З нами з: 06.04.15
Востаннє: 19.08.17
Повідомлень: 1759

2017-03-07 18:32  
Хтось може зробити нарізку вручень і промов?
Ваш часовий пояс: GMT + 2 Години

Нова тема   Відповісти