Принц Персії: Піски часу / Prince of Persia: The Sands of Time (2010) Remux 1080p Ukr/Eng | Sub Ukr/Eng — HD українською

Принц Персії: Піски часу / Prince of Persia: The Sands of Time (2010) Remux 1080p Ukr/Eng | Sub Ukr/Eng

Нові коментарі

Нова тема   Відповісти
Автор Повідомлення
staf777 
Попереджень: 1
Попереджень: 1 


З нами з: 16.11.16
Востаннє: 20.08.18
Повідомлень: 1397

2017-03-07 15:29  
Принц Персії: Піски часу / Prince of Persia: The Sands of Time (2010) Remux 1080p Ukr/Eng | Sub Ukr/Eng

Альтернативні постери та оригінальна обкладинка





Жанр: бойовик, пригодницький, фентезі
Країна: США



Кінокомпанія: Jerry Bruckheimer Films, Moving Picture Company / Walt Disney Pictures
Режисер: Майк Ньюелл (Mike Newell)
Актори: Джейк Джилленхол (Jake Gyllenhaal), Джемма Артертон (Gemma Arterton), Бен Кінґслі (Ben Kingsley), Альфред Моліна (Alfred Molina), Тобі Кеббелл (Toby Kebbell) та інші.

Сюжет:
Чергова екранізація однієї з популярних відеоігор - персидський принц Дастан разом з принцесою Таміною повинні зупинити злого візира, який за допомогою магічних артефактів зібрався заволодіти всім світом.


Тривалість: 01:55:53
Якість: Remux 1080p
Відео:
кодек:
розмір кадру: 1920x1080
бітрейт: 20.2 Mб/с

Аудіо # 1:
мова: українська
переклад: професійний дубльований
кодек: 5.1
бітрейт: 640 кб/с

Аудіо # 2:
мова: англійська
переклад: оригінал
кодек: -HD MA 5.1
бітрейт: 4198 кб/с

Субтитри # 1, 2: - форсовані і повні:
мова: українська
тип: пререндерні
формат: *.pgs

Субтитри # 3-4:
мова: англійська
тип: пререндерні
формат: *.pgs
Info
General
Unique ID : 246392979893235455044379179678660766245 (0xB95D8FD289F455CBA663E992EB2F2A25)
Complete name : H:\» HD українською » Фільми в HD\Фентезі\Prince of Persia The Sands of Time (2010) [Ukr,Eng sub.Eng] Remux 1080p [Hurtom].
Format :
Format version : Version 4 / Version 2
File size : 20.3 GiB
Duration : 1 h 55 min
Overall bit rate mode : Variable
Overall bit rate : 25.0 Mb/s
Movie name : Prince of Persia: The Sands of Time (2010) [Ukr,Eng sub.Eng] Remux 1080p [Hurtom]
Encoded date : UTC 2017-03-07 17:40:04
Writing application : v9.8.0 ('Kuglblids') 64bit
Writing library : libebml v1.3.4 + v1.4.5

Video
ID : 1
Format : AVC
Format/Info : Advanced Video Codec
Format profile : [email protected]
Format settings, CABAC : Yes
Format settings, ReFrames : 4 frames
Codec ID : V_MPEG4/ISO/AVC
Duration : 1 h 55 min
Bit rate mode : Variable
Bit rate : 20.2 Mb/s
Maximum bit rate : 32.0 Mb/s
Width : 1 920 pixels
Height : 1 080 pixels
Display aspect ratio : 16:9
Frame rate mode : Constant
Frame rate : 23.976 (24000/1001) FPS
Color space : YUV
Chroma subsampling : 4:2:0
Bit depth : 8 bits
Scan type : Progressive
Bits/(Pixel*Frame) : 0.405
Stream size : 16.3 GiB (81%)
Default : Yes
Forced : No
Color range : Limited
Color primaries : BT.709
Transfer characteristics : BT.709
Matrix coefficients : BT.709

Audio #1
ID : 2
Format : AC-3
Format/Info : Audio Coding 3
Mode extension : CM (complete main)
Format settings, Endianness : Big
Codec ID : A_AC3
Duration : 1 h 55 min
Bit rate mode : Constant
Bit rate : 640 kb/s
Channel(s) : 6 channels
Channel positions : Front: L C R, Side: L R, LFE
Sampling rate : 48.0 kHz
Frame rate : 31.250 FPS (1536 spf)
Bit depth : 16 bits
Compression mode : Lossy
Stream size : 531 MiB (3%)
Language : Ukrainian
Default : Yes
Forced : Yes

Audio #2
ID : 3
Format :
Format/Info : Digital Theater Systems
Format profile : MA / Core
Mode : 16
Format settings, Endianness : Big
Codec ID : A_DTS
Duration : 1 h 55 min
Bit rate mode : Variable / Constant
Bit rate : 4 197 kb/s / 1 509 kb/s
Channel(s) : 6 channels
Channel positions : Front: L C R, Side: L R, LFE
Sampling rate : 48.0 kHz
Frame rate : 93.750 FPS (512 spf)
Bit depth : 24 bits
Compression mode : Lossless / Lossy
Stream size : 3.40 GiB (17%)
Language : English
Default : No
Forced : No

Text #1
ID : 4
Format : PGS
Muxing mode : zlib
Codec ID : S_HDMV/PGS
Codec ID/Info : Picture based subtitle format used on BDs/HD-DVDs
Duration : 1 h 48 min
Bit rate : 97 b/s
Count of elements : 290
Stream size : 78.0 KiB (0%)
Language : Ukrainian
Default : Yes
Forced : Yes

Text #2
ID : 5
Format : PGS
Muxing mode : zlib
Codec ID : S_HDMV/PGS
Codec ID/Info : Picture based subtitle format used on BDs/HD-DVDs
Duration : 1 h 48 min
Bit rate : 8 926 b/s
Count of elements : 2404
Stream size : 6.95 MiB (0%)
Language : Ukrainian
Default : No
Forced : No

Text #3
ID : 6
Format : PGS
Muxing mode : zlib
Codec ID : S_HDMV/PGS
Codec ID/Info : Picture based subtitle format used on BDs/HD-DVDs
Duration : 1 h 47 min
Bit rate : 10.7 kb/s
Count of elements : 2806
Stream size : 8.19 MiB (0%)
Language : English
Default : No
Forced : No

Text #4
ID : 7
Format : PGS
Muxing mode : zlib
Codec ID : S_HDMV/PGS
Codec ID/Info : Picture based subtitle format used on BDs/HD-DVDs
Duration : 1 h 47 min
Bit rate : 8 900 b/s
Count of elements : 2362
Stream size : 6.83 MiB (0%)
Language : English
Default : No
Forced : No
Скріншоти



Джерело: &
Особиста оцінка: 8 - мені сподобалося
Принц Персії: Піски часу / Prince of Persia: The Sands of Time (2010) Remux 1080p Ukr/Eng | Sub Ukr/Eng


Принц Персії: Піски часу / Prince of Persia: The Sands of Time (2010) Remux 1080p Ukr/Eng | Sub Ukr/Eng


Золотий реліз (завантажене не впливає на рейтинг)
 Трекер:    Зареєстрований   

Завантажити / скачати фільм українською



відео для новачків



 Зареєстрований:   2017-03-07 22:55
 Розмір:   20.26 GB 
 Оцінка фільму:   9.5/10 (Голосів: 18)
   
Arx1meD_CrackeR 
Новенький


З нами з: 17.04.13
Востаннє: 19.08.18
Повідомлень: 12

2017-06-10 15:56  
завантажити не реально. роздачі нема шв 200кб\сек
Дайте швидкості адміни плізз !!

alexshab 
Новенький


З нами з: 03.03.15
Востаннє: 29.06.18
Повідомлень: 24

2017-06-12 08:38  
Arx1meD_CrackeR, тут адміни не причому))
Ти скачуєш у тих хто не видалив цей фільм і роздає.
Погугли про торренти.

snegurrrka 
Новенький


З нами з: 02.11.14
Востаннє: 08.08.18
Повідомлень: 8

2017-06-13 18:50  
Хотілося б побільше таких фільмів, дуже чудова казка, переглядав вже більше 5 разів і ще буду колись дивитись. Сподіваюсь, що знімуть ще фільми подібні до цього та Stardust (2007).
[email protected] 
Свій


З нами з: 25.03.17
Востаннє: 19.08.18
Повідомлень: 98

2017-12-06 01:00  
Казка як казка, для любителів Піратів присв'ячується. В загалом нічого так 6 з 10
Ваш часовий пояс: GMT + 2 Години

Нова тема   Відповісти