Вулиця Різника / Ripper Street (Сезон 1-3) (2013-2014) AVC

Нові коментарі

Нова тема   Відповісти
Автор Повідомлення
sergiyko.5 
VIP


З нами з: 25.02.16
Востаннє: 15.09.19
Повідомлень: 2554

2017-03-07 08:37  
Вулиця Різника / Ripper Street (Сезон 1-3) (2013-2014) AVC

Вулиця Різника / Ripper Street (Сезон 1-3) (2013-2014) AVC

Жанр: детектив
Країна: Великобританія
Кінокомпанія / телеканал: BBC One
Режисер: Енді Вілсон, Том Шенкленд, Колм МакКарті
Актори: Метью Макфейден, Джером Флинн, Адам Ротенберг, Девід Вілмот, МайАнна Бйорінг, Шарлін МакКенна

Сюжет:
Події даного серіалу розгортаються в Лондоні 1899 року, відразу після гучних вбивств, скоєних Джеком Різником. Команда детективів розслідує злочини, попутно намагаючись заспокоїти паніку серед жителів Іст-Енду.




Тривалість: 1 серія: 00:51:17 (цілком серій: 24)

Якість:
Відео: кодек: розмір кадру: 704 х 392 бітрейт: 900 кб/с
Аудіо: мова: українська переклад: багатоголосий закадровий кодек: MP2 2.0 бітрейт: 192 кб/с
Джерело озвучення: Індиго TV
Перелік серій:

Сезон 1:
01 I Need Light
02 In My Protection
03 The King Came Calling
04 The Good of This City
05 The Weight of One Man's Heart
06 Tournament of Shadows
07 A Man of My Company
08 What Use Our Work?

Сезон 2:
01. Pure as the Driven
02. Am I Not Monstrous
03. Become Man
04. Dinamyte and a Woman
05. Threads of Silk and Gold
06. A Stronger Loving World.
07. Our Betrayal 1
08. Our Betrayal 2

Сезон 3:
01 Whitechapel Terminus
02 The Beating of Her Wings
03 Ashes and Diamonds
04 Your Father. My Friend
05 Heavy Boots
06 The Incontrovertible Truth
07 Live Free, Live True
08 The Peace of Edmund Reid
Інформація про файл:

General
Unique ID : 199461093261811270826370115026451058491 (0x960ECF2963E1A0BBBB0FA7738E0E4F3B)
Complete name : E:\VideoDisk\S02E02.Am I Not Monstrous.
Format :
Format version : Version 2
File size : 339 MiB
Duration : 51mn 26s
Overall bit rate : 922 Kbps
Encoded date : UTC 2017-03-07 00:07:01
Writing application : v7.8.0 ('River Man') 32bit built on Apr 3 2015 12:11:22
Writing library : libebml v1.3.1 + v1.4.2

Video
ID : 1
Format : AVC
Format/Info : Advanced Video Codec
Format profile : [email protected]
Format settings, CABAC : Yes
Format settings, ReFrames : 11 frames
Codec ID : V_MPEG4/ISO/AVC
Duration : 51mn 26s
Bit rate : 712 Kbps
Width : 704 pixels
Height : 392 pixels
Display aspect ratio : 16:9
Frame rate mode : Constant
Frame rate : 25.000 fps
Color space : YUV
Chroma subsampling : 4:2:0
Bit depth : 8 bits
Scan type : Progressive
Bits/(Pixel*Frame) : 0.103
Stream size : 262 MiB (77%)
Writing library : core 146 r2538 121396c
Encoding settings : cabac=1 / ref=11 / deblock=1:-2:-1 / analyse=0x3:0x133 / me=umh / subme=10 / psy=1 / psy_rd=1.00:0.20 / mixed_ref=1 / me_range=24 / chroma_me=1 / trellis=2 / 8x8dct=1 / cqm=0 / deadzone=21,11 / fast_pskip=1 / chroma_qp_offset=-3 / threads=6 / lookahead_threads=1 / sliced_threads=0 / nr=0 / decimate=1 / interlaced=0 / bluray_compat=0 / constrained_intra=0 / bframes=4 / b_pyramid=2 / b_adapt=2 / b_bias=0 / direct=3 / weightb=1 / open_gop=0 / weightp=2 / keyint=250 / keyint_min=25 / scenecut=40 / intra_refresh=0 / rc_lookahead=60 / rc=crf / mbtree=1 / crf=18.0 / qcomp=0.60 / qpmin=0 / qpmax=69 / qpstep=4 / ip_ratio=1.40 / aq=1:1.00
Default : Yes
Forced : No

Audio
ID : 2
Format : MPEG Audio
Format version : Version 1
Format profile : Layer 2
Codec ID : A_MPEG/L2
Codec ID/Hint : MP2
Duration : 51mn 26s
Bit rate mode : Constant
Bit rate : 192 Kbps
Channel(s) : 2 channels
Sampling rate : 48.0 KHz
Compression mode : Lossy
Stream size : 70.7 MiB (21%)
Default : Yes
Forced : No
Скріншоти:


Автор запису/ріпів: sergiyko



Бронзовий реліз (на рейтинг впливає 75% завантаженого)
 Трекер:    Зареєстрований   

Завантажити / скачати серіал українською



відео для новачків



 Зареєстрований:   2017-05-01 17:47
 Розмір:   8.92 GB 
 Оцінка серіалу:   9.8/10 (Голосів: 20)
   
sergiyko.5 
VIP


З нами з: 25.02.16
Востаннє: 15.09.19
Повідомлень: 2554

2017-04-11 15:06  
Додав серії до повного другого сезону, 7 серій третього, та 3 першого.
drmicron 
Частий відвідувач


З нами з: 14.09.09
Востаннє: 15.09.19
Повідомлень: 30

2017-04-23 21:07  
Випав з поля зору, якось не звертав увагу спочатку. Переглянувши кілька серій можу сказати - серіал сподобався. Особиста оцінка співпадає з рейтингом IMDB - 8/10.
sergiyko.5 
VIP


З нами з: 25.02.16
Востаннє: 15.09.19
Повідомлень: 2554

2017-04-24 21:18  
Додав 1-3 серії першого сезона та 8 третього.
sergiyko.5 
VIP


З нами з: 25.02.16
Востаннє: 15.09.19
Повідомлень: 2554

2017-05-01 17:49  
Додав 4,5 серії першого сезону. Три сезони повні, про трансляцію нових сезонів інформація відсутня.

Приємного перегляду!

krigg070 
Відео Гуртом - фільмокрай
Відео Гуртом - фільмокрай


З нами з: 29.10.14
Востаннє: 15.09.19
Повідомлень: 1607

2017-05-01 17:52  
sergiyko.5
Канал показав підрізану версію, порівняно з блуреєм?

sergiyko.5 
VIP


З нами з: 25.02.16
Востаннє: 15.09.19
Повідомлень: 2554

2017-05-01 18:54  
krigg070
Так. Колись пробував підігнати різні версії відео ще з "Мега", та закинув, невдячна справа.

Ваш часовий пояс: GMT + 2 Години

Нова тема   Відповісти