У чорта на куличках (У дідька на рогах) / Quo vado? (2016) 720p Ukr/Ita

Нові коментарі

Нова тема   Відповісти
Автор Повідомлення
Anonymous 







2017-03-06 23:15  
У чорта на куличках / У дідька на рогах / Quo vado? (2016) 720p Ukr/Ita

У чорта на куличках (У дідька на рогах) / Quo vado? (2016) 720p Ukr/Ita


Жанр: комедія, пригодницький
Країна: Італія



Кінокомпанія: Medusa Film, Taodue Film
Режисер: Дженнаро Нунціанте
Актори: Кекко Дзалоне, Елеонора Джованарді, Соня Бергамаско, Мауріціо Мікелі, Ліно Банфі, Людовіка Модуньо, Антоніно Брускетта, Паоло Пьєробон, Азурра Мартіно, Фабіо Казале та інші

Сюжет:
Неймовірно смішна історія про провінційного чиновника Чекко, котрий обожнює свою стабільну роботу. Коли новий уряд починає війну з бюрократією, Чекко кліщами чіпляється за улюблений пост і навіть не противиться відрядженню на Північний полюс. Але там він знайомиться з дослідником-активісткою Веронікою, яка має зовсім інші цілі в житті.


Тривалість: 01:27:26
Якість:
Відео:
кодек:
розмір кадру: 1280х536
бітрейт: 5647 кб/с

Аудіо # 1:
мова: українська
переклад: багатоголосий закадровий
кодек: 2.0
бітрейт: 192 кб/с

Аудіо # 2:
мова: італійська
переклад: оригінал
кодек: 5.1
бітрейт: 384 кб/с

Збережено оригінальні розділи, як на Blu-Ray
Info
General
Unique ID : 250279834403454277888231442576368879670 (0xBC4A248B9DFFA3AEBB64F609CA5E4836)
Complete name : D:\Quo vado (2016) BDRіp 720p.
Format :
Format version : Version 4 / Version 2
File size : 3.80 GiB
Duration : 1h 27mn
Overall bit rate : 6 218 Kbps
Encoded date : UTC 2017-03-06 21:04:11
Writing application : mkvmerge v9.3.1 ('Mask Machine') 64bit
Writing library : libebml v1.3.4 + libmatroska v1.4.5
Attachements : cover.jpg
DURATION : 01:27:26.016000000
NUMBER_OF_FRAMES : 163938
NUMBER_OF_BYTES : 251808768
_STATISTICS_WRITING_APP : mkvmerge v9.3.1 ('Mask Machine') 64bit
_STATISTICS_WRITING_DATE_UTC : 2017-03-06 21:04:11
_STATISTICS_TAGS : BPS DURATION NUMBER_OF_FRAMES NUMBER_OF_BYTES

Video
ID : 1
Format : AVC
Format/Info : Advanced Video Codec
Format profile : [email protected]
Format settings, CABAC : Yes
Format settings, ReFrames : 5 frames
Codec ID : V_MPEG4/ISO/AVC
Duration : 1h 27mn
Bit rate : 5 647 Kbps
Width : 1 280 pixels
Height : 536 pixels
Display aspect ratio : 2.40:1
Frame rate mode : Constant
Frame rate : 23.976 fps
Color space : YUV
Chroma subsampling : 4:2:0
Bit depth : 8 bits
Scan type : Progressive
Bits/(Pixel*Frame) : 0.343
Stream size : 3.37 GiB (89%)
Writing library : core 148 r2692 64f4e24
Encoding settings : cabac=1 / ref=5 / deblock=1:-3:-3 / analyse=0x3:0x113 / me=umh / subme=8 / psy=1 / psy_rd=1.00:0.00 / mixed_ref=1 / me_range=16 / chroma_me=1 / trellis=1 / 8x8dct=1 / cqm=0 / deadzone=21,11 / fast_pskip=1 / chroma_qp_offset=-2 / threads=12 / lookahead_threads=2 / sliced_threads=0 / nr=0 / decimate=1 / interlaced=0 / bluray_compat=0 / constrained_intra=0 / bframes=3 / b_pyramid=2 / b_adapt=2 / b_bias=0 / direct=3 / weightb=1 / open_gop=0 / weightp=2 / keyint=240 / keyint_min=24 / scenecut=40 / intra_refresh=0 / rc_lookahead=50 / rc=2pass / mbtree=1 / bitrate=5647 / ratetol=1.0 / qcomp=0.60 / qpmin=0 / qpmax=69 / qpstep=4 / cplxblur=20.0 / qblur=0.5 / ip_ratio=1.40 / aq=1:1.00
Default : Yes
Forced : No
DURATION : 01:27:26.074000000
NUMBER_OF_FRAMES : 125780
NUMBER_OF_BYTES : 3698436972
_STATISTICS_WRITING_APP : mkvmerge v9.3.1 ('Mask Machine') 64bit
_STATISTICS_WRITING_DATE_UTC : 2017-03-06 21:04:11
_STATISTICS_TAGS : BPS DURATION NUMBER_OF_FRAMES NUMBER_OF_BYTES

Audio #1
ID : 2
Format : AC-3
Format/Info : Audio Coding 3
Mode extension : CM (complete main)
Format settings, Endianness : Big
Codec ID : A_AC3
Duration : 1h 27mn
Bit rate mode : Constant
Bit rate : 192 Kbps
Channel(s) : 2 channels
Channel positions : Front: L R
Sampling rate : 48.0 KHz
Compression mode : Lossy
Stream size : 120 MiB (3%)
Language : Ukrainian
Default : Yes
Forced : No

Audio #2
ID : 3
Format : AC-3
Format/Info : Audio Coding 3
Mode extension : CM (complete main)
Format settings, Endianness : Big
Codec ID : A_AC3
Duration : 1h 27mn
Bit rate mode : Constant
Bit rate : 384 Kbps
Channel(s) : 6 channels
Channel positions : Front: L C R, Side: L R, LFE
Sampling rate : 48.0 KHz
Compression mode : Lossy
Stream size : 240 MiB (6%)
Language : Italian
Default : No
Forced : No

Menu
00:00:00.000 : en:00:00:00.000
00:04:29.936 : en:00:04:29.936
00:07:35.622 : en:00:07:35.622
00:13:38.276 : en:00:13:38.276
00:17:20.039 : en:00:17:20.039
00:20:46.495 : en:00:20:46.495
00:24:32.680 : en:00:24:32.680
00:30:28.869 : en:00:30:28.869
00:37:06.766 : en:00:37:06.766
00:42:58.576 : en:00:42:58.576
00:49:36.265 : en:00:49:36.265
00:54:24.219 : en:00:54:24.219
00:59:34.279 : en:00:59:34.279
01:12:18.751 : en:01:12:18.751
01:17:19.552 : en:01:17:19.552
01:21:27.758 : en:01:21:27.758
Скріншоти





Джерело: &
Особиста оцінка: 0 - не дивився
Подяка за доріжку пану Electroz і пану РОМЕО за запис з ТБ




 Трекер:    Зареєстрований   

Завантажити / скачати фільм українською



відео для новачків



 Зареєстрований:   2017-03-06 23:15
 Розмір:   3.8 GB 
 Оцінка фільму:   6.7/10 (Голосів: 37)
   
3a6a6axyc 
Новенький


З нами з: 26.11.16
Востаннє: 16.12.17
Повідомлень: 9

2017-03-07 00:05  
фільмець легкий та не обтяжливий , як спагеті з вонголе під спуманте !
Рекомендую !

Andrij1971 
Частий відвідувач


З нами з: 19.07.14
Востаннє: 14.12.17
Повідомлень: 29

2017-03-07 12:43  
У чорта на куличках. Офіційний український трейлер (2016) HD

morfst 
Частий відвідувач


З нами з: 31.05.14
Востаннє: 15.12.17
Повідомлень: 41

2017-03-07 22:41  
крута комедія
hetzendorf 
Відео Гуртом - підтримка та поширення
Відео Гуртом - підтримка та поширення


З нами з: 23.07.15
Востаннє: 17.12.17
Повідомлень: 643

2017-04-13 23:37  
Ржачно, але ніц особливого, суто на раз подивитися. Та й толерастія обтяжує та напружує неілюзорно! Як цей хлопака міг з чорнильницею злигатися — не розумію! >_<
6/10

Alex_Shumway 
Новенький


З нами з: 10.07.16
Востаннє: 16.12.17
Повідомлень: 19

2017-05-13 20:02  
веселий і добрий фільм Happy
valik_tg 
Новенький


З нами з: 02.09.11
Востаннє: 15.12.17
Повідомлень: 4

2017-09-28 20:38  
супер кіношка
Ваш часовий пояс: GMT + 2 Години

Нова тема   Відповісти