Русалонька / The Little Mermaid (1989) Remux 1080p Ukr/Eng | Sub Ukr/Eng

Нові коментарі

Нова тема   Відповісти
Автор Повідомлення
Anonymous 







2017-03-06 17:06  
Русалонька / The Little Mermaid (1989) Remux Ukr/Eng | Sub Ukr/Eng



Жанр: анімація, музичний, фентезі, мелодрама, сімейний
Країна: США

Два Оскара та два Золотих глобуси за Найкращу пісню та Найкращий оригінальний саундтрек


Кінокомпанія: Walt Disney Pictures, Silver Screen Partners IV, Walt Disney Feature Animation
Режисер: Рон Клементс / Ron Clements, Джон Маскер / John Musker
Композитор: Алан Менкен / Alan Menken
Актори: Джоді Бенсон / Jodi Benson, Пет Керролл / Pat Carroll, Рене Обержонуа / Rene Auberjonois, Крістофер Деніел Барнс / Christopher Daniel Barnes, Педді Едвардс / Paddi Edwards, Бадді Гаккетт / Buddy Hackett, Джейсон Марін / Jason Marin, Кеннет Марс / Kenneth Mars, Еді МакКлерг / Edie McClurg, Вілл Раян / Will Ryan та інші

Сюжет:
Таємничі глибини моря приховують чимало таємниць, а мешканці океану можуть розповісти безліч дивовижних історій. І найнеймовірнішою з них була і залишається історія русалоньки Аріель. Дочка могутнього царя підводного світу Тритона одного разу закохується в прекрасного і мужнього принца. Але хіба вони можуть бути разом - земна людина і морська діва? Однак справжні почуття долають будь-які перешкоди. Заради свого кохання Аріель готова піти на все, навіть якщо для набуття свого щастя їй назавжди доведеться покинути рідний океан і навіки стати земною дівчиною ...


Рейтинг MPAA: G - нема вікових обмежень
Вікова категорія: 0+

Тривалість: 01:22:48
Якість: Remux
Відео:
кодек:
розмір кадру: 1920 х 1080
бітрейт: 27,4 Мбіт/с

Аудіо # 1:
мова: українська
переклад: професійний дубльований | студія LeDoyen
кодек: 5.1
бітрейт: 384 кб/с
Інформація про дубляж

Переклад тексту і пісень: Роман Кисельов
Режисер дубляжу: Костянтин Лінартович
Музичний керівник: Тетяна Піроженко
Ролі дублювали: Аріель – Ліза Курбанмагомедова, Себастьян – Ігор Тимошенко, Тритон – Юрій Висоцький, Флаундер – Олег Александров, Урсула – Тамара Яценко, Скорик – Павло Скороходько, Ерік – Дмитро Сова, Луї – Андрій Альохін; Людмила Суслова, Валерій Легін та інші

Мультфільм дубльовано студією LeDoyen на замовлення Disney Character Voices International, Inc.
Аудіо # 2:
мова: англійська
переклад: оригінал
кодек: -HD MA 7.1
бітрейт: 5728 кб/с

Аудіо # 3:
мова: англійська
переклад: оригінал
кодек: 5.1
бітрейт: 640 кб/с

Аудіо # 4:
мова: англійська
переклад: коментарі режисерів Рона Клементса та Джона Маскера і композитора Алана Менкена
кодек: 2.0
бітрейт: 192 кб/с

Субтитри # 1:
мова: українська
тип: програмні (м'які)
формат: *.srt

Субтитри # 2-5:
мова: англійська (форсовані, повні, SDH, на пісні)
тип: програмні (м'які)
формат: *.srt

Збережено оригінальні розділи, як на Blu-ray
Info
Код:
Format                      :
Format version              : Version 4 / Version 2
File size                   : 19.9 GiB
Duration                    : 1 h 22 min
Overall bit rate mode       : Variable
Overall bit rate            : 34.4 Mb/s

Video
ID                          : 1
Format                      : AVC
Format/Info                 : Advanced Video Codec
Format profile              : [email protected]
Format settings, CABAC      : Yes
Format settings, ReFrames   : 4 frames
Format settings, GOP        : M=1, N=12
Codec ID                    : V_MPEG4/ISO/AVC
Duration                    : 1 h 22 min
Bit rate mode               : Variable
Bit rate                    : 27.4 Mb/s
Maximum bit rate            : 30.5 Mb/s
Width                       : 1 920 pixels
Height                      : 1 080 pixels
Display aspect ratio        : 16:9
Frame rate mode             : Constant
Frame rate                  : 23.976 (24000/1001) FPS
Color space                 : YUV
Chroma subsampling          : 4:2:0
Bit depth                   : 8 bits
Scan type                   : Progressive
Bits/(Pixel*Frame)          : 0.551
Stream size                 : 15.9 GiB (80%)
Title                       : Русалонька / The Little Mermaid (1989) Remux 1080p
Language                    : English
Default                     : Yes
Forced                      : No

Audio #1
ID                          : 2
Format                      : AC-3
Format/Info                 : Audio Coding 3
Format settings, Endianness : Big
Codec ID                    : A_AC3
Duration                    : 1 h 22 min
Bit rate mode               : Constant
Bit rate                    : 384 kb/s
Channel(s)                  : 6 channels
Channel positions           : Front: L C R, Side: L R, LFE
Sampling rate               : 48.0 kHz
Frame rate                  : 31.250 FPS (1536 spf)
Bit depth                   : 16 bits
Compression mode            : Lossy
Stream size                 : 227 MiB (1%)
Title                       : Dub [LeDoyen] 5.1 384 Kbps [Hurtom-Hanway]
Language                    : Ukrainian
Service kind                : Complete Main
Default                     : Yes
Forced                      : Yes

Audio #2
ID                          : 3
Format                      :
Format/Info                 : Digital Theater Systems
Format profile              : MA / Core
Mode                        : 16
Format settings, Endianness : Big
Codec ID                    : A_DTS
Duration                    : 1 h 22 min
Bit rate mode               : Variable / Constant
Bit rate                    : 5 728 kb/s / 1 509 kb/s
Channel(s)                  : 8 channels / 6 channels
Channel positions           : Front: L C R, Side: L R, Back: L R, LFE / Front: L C R, Side: L R, LFE
Sampling rate               : 48.0 kHz
Frame rate                  : 93.750 FPS (512 spf)
Bit depth                   : 24 bits
Compression mode            : Lossless / Lossy
Stream size                 : 3.31 GiB (17%)
Title                       : Original, -HD MA 7.1 5728 Kbps
Language                    : English
Default                     : No
Forced                      : No

Audio #3
ID                          : 4
Format                      : AC-3
Format/Info                 : Audio Coding 3
Format settings, Endianness : Big
Codec ID                    : A_AC3
Duration                    : 1 h 22 min
Bit rate mode               : Constant
Bit rate                    : 640 kb/s
Channel(s)                  : 6 channels
Channel positions           : Front: L C R, Side: L R, LFE
Sampling rate               : 48.0 kHz
Frame rate                  : 31.250 FPS (1536 spf)
Bit depth                   : 16 bits
Compression mode            : Lossy
Stream size                 : 379 MiB (2%)
Title                       : Original, 5.1 640 Kbps
Language                    : English
Service kind                : Complete Main
Default                     : No
Forced                      : No

Audio #4
ID                          : 5
Format                      : AC-3
Format/Info                 : Audio Coding 3
Format settings, Endianness : Big
Codec ID                    : A_AC3
Duration                    : 1 h 22 min
Bit rate mode               : Constant
Bit rate                    : 192 kb/s
Channel(s)                  : 2 channels
Channel positions           : Front: L R
Sampling rate               : 48.0 kHz
Frame rate                  : 31.250 FPS (1536 spf)
Bit depth                   : 16 bits
Compression mode            : Lossy
Stream size                 : 114 MiB (1%)
Title                       : Commentary by John Musker, Ron Clements, Alan Menken
Language                    : English
Service kind                : Complete Main
Default                     : No
Forced                      : No

Text #1
ID                          : 6
Format                      : UTF-8
Codec ID                    : S_TEXT/UTF8
Codec ID/Info               : UTF-8 Plain Text
Duration                    : 1 h 16 min
Bit rate                    : 90 b/s
Count of elements           : 918
Stream size                 : 51.1 KiB (0%)
Title                       : Ukr Full [DVD R5]
Language                    : Ukrainian
Default                     : No
Forced                      : No

Text #2
ID                          : 7
Format                      : UTF-8
Codec ID                    : S_TEXT/UTF8
Codec ID/Info               : UTF-8 Plain Text
Duration                    : 1 h 16 min
Bit rate                    : 14 b/s
Count of elements           : 251
Stream size                 : 7.89 KiB (0%)
Title                       : Eng Forsed
Language                    : English
Default                     : No
Forced                      : No

Text #3
ID                          : 8
Format                      : UTF-8
Codec ID                    : S_TEXT/UTF8
Codec ID/Info               : UTF-8 Plain Text
Duration                    : 1 h 16 min
Bit rate                    : 53 b/s
Count of elements           : 953
Stream size                 : 29.9 KiB (0%)
Title                       : Eng Full
Language                    : English
Default                     : No
Forced                      : No

Text #4
ID                          : 9
Format                      : UTF-8
Codec ID                    : S_TEXT/UTF8
Codec ID/Info               : UTF-8 Plain Text
Duration                    : 1 h 20 min
Bit rate                    : 61 b/s
Count of elements           : 1208
Stream size                 : 36.3 KiB (0%)
Title                       : Eng SDH
Language                    : English
Default                     : No
Forced                      : No

Text #5
ID                          : 10
Format                      : UTF-8
Codec ID                    : S_TEXT/UTF8
Codec ID/Info               : UTF-8 Plain Text
Duration                    : 1 h 16 min
Bit rate                    : 14 b/s
Count of elements           : 251
Stream size                 : 7.90 KiB (0%)
Title                       : Eng Songs
Language                    : English
Default                     : No
Forced                      : No

Menu
00:00:00.000                : en:"Fathoms Below"
00:02:17.846                : en:Main Titles
00:03:47.185                : en:Sebastian's Concert
00:05:51.642                : en:The Sunken Ship
00:08:56.035                : en:Scuttle
00:10:48.981                : en:Ursula Watches Ariel
00:15:01.358                : en:"Part of Your World"
00:19:04.685                : en:To the Surface
00:22:18.462                : en:Storm at Sea
00:25:15.722                : en:Eric is Saved
00:29:06.244                : en:"Under the Sea"
00:32:56.057                : en:Sebastian and King Triton
00:34:21.476                : en:Ariel's Hidden Treasure
00:38:49.160                : en:Ursula's Lair
00:40:00.689                : en:"Poor Unfortunate Souls"
00:41:38.412                : en:Ursula's Deal
00:45:42.614                : en:In Eric's Kingdom
00:50:57.054                : en:Dinner in the Castle
00:52:22.556                : en:"Les Poissons"
00:57:21.771                : en:A Tour of the Kingdom
00:59:35.947                : en:"Kiss the Girl"
01:02:29.203                : en:Ursula Takes Charge
01:05:45.650                : en:The Wedding Ship
01:10:04.742                : en:Sunset on the Third Day
01:12:48.739                : en:Ursula's Wrath
01:15:33.153                : en:Happy Ending
01:18:19.403                : en:End Credits

Джерело: &
Подяка slavik_v_z та Sando7 за запис звуку, Hanway за синхронізацію 5.1 та Gelios за постер.

Особиста оцінка: 10 - рекомендую всім дітям та їх батькам

ЗАЛИШАЙТЕСЬ ЯКОМОГА ДОВШЕ НА РОЗДАЧІ
ЗАВАНТАЖИВ САМ - ДАЙ ЗАВАНТАЖИТИ ІНШИМ!


Золотий реліз (завантажене не впливає на рейтинг)
 Трекер:    Зареєстрований   

Завантажити / скачати мультфільм українською



відео для новачків



 Зареєстрований:   2017-03-07 22:35
 Розмір:   19.87 GB 
 Оцінка мультфільму:   5.7/10 (Голосів: 21)
   
vanja2911 
Новенький


З нами з: 20.08.12
Востаннє: 11.08.17
Повідомлень: 2

2017-06-26 08:00  
нарешті дочекалися!!!!!дуже якісний дубляж,це щось неймовірно справді шедеврально!!!!!!голоса просто підібрані один в один,я давно чекав цієї події так як моєї доні русалонька улюблена з принцес Дісней,тому обовязково увімкну їй повнометражний фільм для прегляду!!!!!Дякуємо за ваші старання!!!!!І низький уклін за проведенну роботу!!!!!!
ffantastt 
Новенький


З нами з: 19.01.16
Востаннє: 16.08.17
Повідомлень: 8

2017-07-01 00:01  
хех, український дубляж Попелюшки найкращий з усіх, цікаво, чи так само постаралися і з Русалонькою.
Ваш часовий пояс: GMT + 2 Години

Нова тема   Відповісти