Antony Kalugin Project - Antony Kalugin's Karfagen & Sunchild: 10th Anniversary "Breaking Free Tour" (2016) [FLAC] | Symphonic Prog / Progressive Rock

Нові коментарі

Нова тема   Відповісти
Останній раз роздавалося kolpavel (2017-03-28)
Автор Повідомлення
kolpavel 
VIP


З нами з: 04.05.14
Востаннє: 28.03.17
Повідомлень: 1100

2017-03-05 13:00  
Antony Kalugin Project - Antony Kalugin's Karfagen & Sunchild: 10th Anniversary "Breaking Free Tour"
(2016) [FLAC] | Symphonic Prog / Progressive Rock

Antony Kalugin Project - Antony Kalugin's Karfagen & Sunchild: 10th Anniversary "Breaking Free Tour" (2016) [FLAC] | Symphonic Prog / Progressive Rock


Стиль: Symphonic Prog Progressive Rock
Країна, місто: Україна, Харків
Сайти: Офіційний сайт
Видавець: Caerllysi Music
Виконавці:
Aнтон Калугін: клавіші, вокал, перкусія, програмування.
Макс Величко: гітари
Ольга Ростовська: вокал
Костя Шепеленко: барабани
Олег Прохоров: бас
i друзi.

Пісні:
    01. Stars of Cardiff Bay (Sunchild 2011) - 11:01
    02. Sylph (Karfagen 2011) - 04:29
    03. Mirrors (Sunchild 2011) - 04:56
    04. Juggler & the Cloud (Antony Kalugin 2002) - 03:45
    05. Magician's Theater (Karfagen 2014) - 05:25
    06. Rain Drops (Sunchild 2009) - 06:28
    07. Yuletide (Karfagen 2014) - 05:21
    08. The Ring of Eternity (Sunchild 2011) - 05:47
    09. Isolation (part 4) (Sunchild 2012) - 10:18
    10. Fading Light (Sunchild 2009) - 03:30
    11. Visionary Sights (Sunchild 2011) - 06:20
    12. As Far as the Eye Can See (Sunchild 2011) - 07:44
    13. Alight Again (Karfagen 2015) - 04:54

Тривалість: 01:19:58
Мова: англiйська
Аудіо-кодек: FLAC
Бітрейт: 958 кб/с
Джерело: трекер
Додаткова інформація:
EAC
Exact Audio Copy V1.3 from 2. September 2016

EAC extraction logfile from 1. December 2016, 19:22

Antony Kalugin Project / Breaking Free Tour

Used drive : TSSTcorpCDDVDW SH-222BB Adapter: 0 ID: 1

Read mode : Secure
Utilize accurate stream : Yes
Defeat audio cache : Yes
Make use of C2 pointers : No

Read offset correction : 6
Overread into Lead-In and Lead-Out : No
Fill up missing offset samples with silence : Yes
Delete leading and trailing silent blocks : No
Null samples used in CRC calculations : Yes
Used interface : Installed external ASPI interface

Used output format : User Defined Encoder
Selected bitrate : 1024 kBit/s
Quality : High
Add ID3 tag : No
Command line compressor : C:\Program Files (x86)\Exact Audio Copy\wavpack.exe
Additional command line options : -hm %source% %dest%

TOC of the extracted CD

Track | Start | Length | Start sector | End sector
---------------------------------------------------------
1 | 0:00.00 | 11:00.56 | 0 | 49555
2 | 11:00.56 | 4:28.43 | 49556 | 69698
3 | 15:29.24 | 4:55.59 | 69699 | 91882
4 | 20:25.08 | 3:45.03 | 91883 | 108760
5 | 24:10.11 | 5:25.23 | 108761 | 133158
6 | 29:35.34 | 6:28.17 | 133159 | 162275
7 | 36:03.51 | 5:21.25 | 162276 | 186375
8 | 41:25.01 | 5:46.60 | 186376 | 212385
9 | 47:11.61 | 10:17.49 | 212386 | 258709
10 | 57:29.35 | 3:30.23 | 258710 | 274482
11 | 60:59.58 | 6:20.04 | 274483 | 302986
12 | 67:19.62 | 7:44.31 | 302987 | 337817
13 | 75:04.18 | 4:53.50 | 337818 | 359842

Range status and errors

Selected range

Filename I:\NetLab\AKP - Breaking Free Tour\Antony Kalugin Project - Breaking Free Tour.wav

Peak level 100.0 %
Extraction speed 8.4 X
Range quality 100.0 %
Test CRC 5336231D
Copy CRC 5336231D
Copy OK

No errors occurred

AccurateRip summary

Track 1 not present in database
Track 2 not present in database
Track 3 not present in database
Track 4 not present in database
Track 5 not present in database
Track 6 not present in database
Track 7 not present in database
Track 8 not present in database
Track 9 not present in database
Track 10 not present in database
Track 11 not present in database
Track 12 not present in database
Track 13 not present in database

None of the tracks are present in the AccurateRip database

End of status report

---- CUETools DB Plugin V2.1.6

[CTDB TOCID: J07JCKOYBNCmPFYXylNsioAWKdw-] disk not present in database
Submit result: J07JCKOYBNCmPFYXylNsioAWKdw- has been uploaded
лог якостi
-----------------------

DON'T MODIFY THIS FILE

-----------------------

PERFORMER: auCDtect Task Manager, ver. 1.6.0 RC1 build 1.6.0.1
Copyright (c) 2008-2010 y-soft. All rights reserved
http://y-soft.org

ANALYZER: auCDtect: CD records authenticity detector, version 0.8.2
Copyright (c) 2004 Oleg Berngardt. All rights reserved.
Copyright (c) 2004 Alexander Djourik. All rights reserved.

FILE: Antony Kalugin Project - 2016 - Breaking Free Tour.flac
Size: 574535530 Hash: 43C91DF00C03AD79495197523FD36305 Accuracy: -m0
Conclusion: CDDA 100%
Signature: 14DB7D3DB92F0EF9D1247BCDADE9E2F35A5EF703


Якщо Ви справді бажаєте підтримати українське - після прослуховування, якщо музика вам сподобалась, придбайте ліцензійний диск. Підтримаймо вітчизняних виконавців!


 Трекер:    Зареєстрований   

Завантажити / скачати українську музику



відео для новачків



 Зареєстрований:   2017-03-05 13:00
 Розмір:   576 MB 
 Оцінка музики:   9.3/10 (Голосів: 3)
   
kolpavel 
VIP


З нами з: 04.05.14
Востаннє: 28.03.17
Повідомлень: 1100

2017-03-05 13:03  
Дякую ArtDon за пiдготовку цього релiзу.
Ваш часовий пояс: GMT + 2 Години

Нова тема   Відповісти