Містеріум: Початок (The Keeper of Lost Causes) / Kvinden i buret (2013) 720p Ukr/Dan | Sub Eng/Dan/Fin/Nor

Нові коментарі

Нова тема   Відповісти
Автор Повідомлення
Anonymous 







2017-03-04 23:32  
Містеріум: Початок / The Keeper of Lost Causes / Kvinden i buret (2013) 720p Ukr/Dan | Sub Eng/Dan/Fin/Nor




Жанр: кримінальний, детектив, трилер
Країна: Данія , Німеччина , Швеція , Норвегія



Кінокомпанія: Zentropa Entertainments20, Film i Väst, Zentropa Entertainments
Режисер: Міккель Нерґор / Mikkel Nørgaard
Актори: Ніколай Лі Каас / Nikolaj Lie Kaas, Фарес Фарес / Fares Fares, Пер Шів Крюґер / Per Scheel Krüger, Троельс Лубу / Troels Lyby, Ойвінд Б. Фабриціус Голм / Øyvind B. Fabricius Holm, Серен Пільмарк / Søren Pilmark, Дівья Дас / Divya Das, Анна Берског Гауґер / Anne Bærskog Hauger, Соня Ріхтер / Sonja Richter, Расмус Ботофт / Rasmus Botoft

Сюжет:
Екранізація пригод детективів Карла Мерка і Асада, які працюють в Департаменті Q і займаються "глухарями". Взявшись за справу п'ятирічної давності про зникнення жінки на ім'я Мерет вони раптово виходять на слід маніяка-психопата, але переслідуючи його по всій країні, все одно на крок відстають.


Тривалість: 01:36:32
Якість: 720p
Відео:
кодек:
розмір кадру: 1280x534
бітрейт: 5500 кб/с

Аудіо # 1:
мова: українська
переклад: багатоголосий закадровий
кодек: 2.0
бітрейт: 192 кб/с

Аудіо # 2:
мова: данська
переклад: оригінал
кодек: 5.1
бітрейт: 640 кб/с

Субтитри #1, 4-5:
мова: англійська , фінська , норвезька (повні)
тип: програмні (м'які)
формат: *.srt

Субтитри #2-3:
мова: данська (форсовані і повні)
тип: програмні (м'які)
формат: *.srt
Збережено оригінальні розділи, як на Blu-Ray
Info
General
Unique ID : 246500385859340215831821266989118599038 (0xB9723F586BD6B88C8DA8AA7E92272F7E)
Complete name : D:\Kvinden i buret (2013) 720p.
Format :
Format version : Version 4 / Version 2
File size : 4.27 GiB
Duration : 1h 36mn
Overall bit rate : 6 329 Kbps
Encoded date : UTC 2017-03-04 20:04:07
Writing application : mkvmerge v9.3.1 ('Mask Machine') 64bit
Writing library : libebml v1.3.4 + libmatroska v1.4.5
DURATION : 01:36:32.224000000
NUMBER_OF_FRAMES : 181007
NUMBER_OF_BYTES : 139013376
_STATISTICS_WRITING_APP : mkvmerge v9.3.1 ('Mask Machine') 64bit
_STATISTICS_WRITING_DATE_UTC : 2017-03-04 20:04:07
_STATISTICS_TAGS : BPS DURATION NUMBER_OF_FRAMES NUMBER_OF_BYTES

Video
ID : 1
Format : AVC
Format/Info : Advanced Video Codec
Format profile : [email protected]
Format settings, CABAC : Yes
Format settings, ReFrames : 9 frames
Codec ID : V_MPEG4/ISO/AVC
Duration : 1h 36mn
Bit rate : 5 500 Kbps
Width : 1 280 pixels
Height : 534 pixels
Display aspect ratio : 2.40:1
Frame rate mode : Constant
Frame rate : 24.000 fps
Color space : YUV
Chroma subsampling : 4:2:0
Bit depth : 8 bits
Scan type : Progressive
Bits/(Pixel*Frame) : 0.335
Stream size : 3.62 GiB (85%)
Title : Kvinden i Buret
Writing library : core 142 r2389 956c8d8
Encoding settings : cabac=1 / ref=9 / deblock=1:-3:-3 / analyse=0x3:0x133 / me=umh / subme=10 / psy=1 / psy_rd=1.00:0.00 / mixed_ref=1 / me_range=32 / chroma_me=1 / trellis=2 / 8x8dct=1 / cqm=0 / deadzone=21,11 / fast_pskip=1 / chroma_qp_offset=-2 / threads=16 / lookahead_threads=2 / sliced_threads=0 / nr=0 / decimate=1 / interlaced=0 / bluray_compat=0 / constrained_intra=0 / bframes=7 / b_pyramid=2 / b_adapt=1 / b_bias=0 / direct=3 / weightb=1 / open_gop=0 / weightp=2 / keyint=250 / keyint_min=23 / scenecut=40 / intra_refresh=0 / rc_lookahead=0 / rc=2pass / mbtree=0 / bitrate=5500 / ratetol=1.0 / qcomp=0.65 / qpmin=0 / qpmax=40 / qpstep=4 / cplxblur=20.0 / qblur=0.5 / vbv_maxrate=50000 / vbv_bufsize=50000 / nal_hrd=none / filler=0 / ip_ratio=1.25 / pb_ratio=1.25 / aq=1:0.60
Language : Dutch
Default : Yes
Forced : No
DURATION : 01:36:32.167000000
NUMBER_OF_FRAMES : 139012
NUMBER_OF_BYTES : 3979603830
_STATISTICS_WRITING_APP : mkvmerge v9.3.1 ('Mask Machine') 64bit
_STATISTICS_WRITING_DATE_UTC : 2017-03-04 20:04:07
_STATISTICS_TAGS : BPS DURATION NUMBER_OF_FRAMES NUMBER_OF_BYTES

Audio #1
ID : 2
Format : AC-3
Format/Info : Audio Coding 3
Mode extension : CM (complete main)
Format settings, Endianness : Big
Codec ID : A_AC3
Duration : 1h 36mn
Bit rate mode : Constant
Bit rate : 192 Kbps
Channel(s) : 2 channels
Channel positions : Front: L R
Sampling rate : 48.0 KHz
Compression mode : Lossy
Stream size : 133 MiB (3%)
Title : 2.0 @ 192 kbps - НЛО ТБ
Language : Ukrainian
Default : Yes
Forced : No

Audio #2
ID : 3
Format : AC-3
Format/Info : Audio Coding 3
Mode extension : CM (complete main)
Format settings, Endianness : Big
Codec ID : A_AC3
Duration : 1h 36mn
Bit rate mode : Constant
Bit rate : 640 Kbps
Channel(s) : 6 channels
Channel positions : Front: L C R, Side: L R, LFE
Sampling rate : 48.0 KHz
Compression mode : Lossy
Stream size : 442 MiB (10%)
Title : 5.1 @ 640 kbps
Language : Danish
Default : No
Forced : No

Text #1
ID : 4
Format : UTF-8
Codec ID : S_TEXT/UTF8
Codec ID/Info : UTF-8 Plain Text
Language : English
Default : No
Forced : No

Text #2
ID : 5
Format : UTF-8
Codec ID : S_TEXT/UTF8
Codec ID/Info : UTF-8 Plain Text
Title : Forced
Language : Danish
Default : No
Forced : No

Text #3
ID : 6
Format : UTF-8
Codec ID : S_TEXT/UTF8
Codec ID/Info : UTF-8 Plain Text
Title : SDH
Language : Danish
Default : No
Forced : No

Text #4
ID : 7
Format : UTF-8
Codec ID : S_TEXT/UTF8
Codec ID/Info : UTF-8 Plain Text
Language : Finnish
Default : No
Forced : No

Text #5
ID : 8
Format : UTF-8
Codec ID : S_TEXT/UTF8
Codec ID/Info : UTF-8 Plain Text
Language : Norwegian
Default : No
Forced : No

Menu
00:00:00.000 : en:00:00:00.000
00:10:00.000 : en:00:10:00.000
00:19:59.542 : en:00:19:59.542
00:29:59.708 : en:00:29:59.708
00:39:59.750 : en:00:39:59.750
00:49:59.833 : en:00:49:59.833
00:59:59.625 : en:00:59:59.625
01:09:59.667 : en:01:09:59.667
01:19:59.708 : en:01:19:59.708
01:29:59.750 : en:01:29:59.750
Скріншоти
















Джерело: &
Особиста оцінка: 8 - мені сподобалося

Подяка Gelios за доріжку і постер. Запис з ТБ - slavik_v_z і POMEO




 Трекер:    Зареєстрований   

Завантажити / скачати фільм українською



відео для новачків



 Зареєстрований:   2017-03-04 23:33
 Розмір:   4.27 GB 
 Оцінка фільму:   4.6/10 (Голосів: 18)
   
Інші релізи
   Містеріум: Початок / Kvinden i buret (2013) Gelios  15 / 0   1.45 GB   2017-03-04 21:18 
gray380 
Новенький


З нами з: 25.01.09
Востаннє: 23.08.17
Повідомлень: 5

2017-03-26 15:56  
а продовження початку буде? Wink (1)

Додано через 10 хвилин 27 секунд:

WANTED Wink (1)
The Absent One (2014 film)
A Conspiracy Of Faith (2016 film)

igor911 
Відео Гуртом
Відео Гуртом


З нами з: 18.01.08
Востаннє: 23.08.17
Повідомлень: 7336

2017-03-26 17:09  
gray380, Fasandræberne та Flaskepost fra P будуть після показу по ТБ, якщо хтось запише звук.
Ваш часовий пояс: GMT + 2 Години

Нова тема   Відповісти