Битва титанів / Clash of the Titans (2010) Remux 1080p Ukr/Eng | Sub Eng

Нові коментарі

Нова тема   Відповісти
Автор Повідомлення
staf777 
Попереджень: 1
Попереджень: 1 


З нами з: 16.11.16
Востаннє: 10.12.18
Повідомлень: 1887

2017-03-04 20:16  
Битва титанів / Clash of the Titans (2010) Remux 1080p Ukr/Eng | Sub Eng

Битва титанів / Clash of the Titans (2010) Remux 1080p Ukr/Eng | Sub Eng


Жанр: бойовик, фентезі, драма, пригодницький
Країна: Велика Британія, США



Кінокомпанія: Legendary Pictures
Режисер: Луіс Летерріер
Актори: Сем Вортінґтон, Лаям Нісон, Ральф Файнс, Джемма Артертон, Алекса Давалос, Мадс Міккелсен, Денні Гастон

Сюжет:
Один з численних смертних синів Зевса, Персей, не в змозі врятувати свою родину від підземного царства, викликається добровільно взяти участь у війні проти Аїду та його володаря, який планує відібрати владу у Зевса. Група командос на чолі з Персеєм спускається під землю, аби в смертельній війні проти демонів знайти свою долю.


Тривалість: 01:46:07
Якість: Remux 1080p
Відео:
кодек: VC-1
розмір кадру: 1920x1080
бітрейт: 20,4 Mб/с

Аудіо # 1:
мова: українська
переклад: професійний дубльований
кодек: 5.1
бітрейт: 448 кб/с

Аудіо # 2:
мова: англійська
переклад: оригінал
кодек: -HD MA 5.1
бітрейт: 4135 кб/с

Субтитри # 1-2:
мова: англійська
тип: пререндерні
формат: *.pgs
Info
General
Unique ID : 228602197551832474298775575836252575436 (0xABFB2E87F0A5079381A6B0060EDE16CC)
Complete name : H:\» HD українською » Фільми в HD\Фентезі\Clash of the Titans (2010) [Ukr,Eng sub.Eng] Remux 1080p [Hurtom].
Format :
Format version : Version 4 / Version 2
File size : 18.5 GiB
Duration : 1 h 46 min
Overall bit rate : 25.0 Mb/s
Movie name : Clash of the Titans (2010) [Ukr,Eng sub.Eng] Remux 1080p [Hurtom]
Encoded date : UTC 2017-03-04 17:22:05
Writing application : v9.8.0 ('Kuglblids') 64bit
Writing library : libebml v1.3.4 + v1.4.5

Video
ID : 1
Format : VC-1
Format profile : [email protected]
Codec ID : V_MS/VFW/FOURCC / WVC1
Codec ID/Hint : Microsoft
Duration : 1 h 46 min
Bit rate : 20.4 Mb/s
Width : 1 920 pixels
Height : 1 080 pixels
Display aspect ratio : 16:9
Frame rate mode : Constant
Frame rate : 23.976 (24000/1001) FPS
Color space : YUV
Chroma subsampling : 4:2:0
Bit depth : 8 bits
Scan type : Progressive
Compression mode : Lossy
Bits/(Pixel*Frame) : 0.410
Stream size : 15.1 GiB (82%)
Default : Yes
Forced : No

Audio #1
ID : 2
Format : AC-3
Format/Info : Audio Coding 3
Mode extension : CM (complete main)
Format settings, Endianness : Big
Codec ID : A_AC3
Duration : 1 h 46 min
Bit rate mode : Constant
Bit rate : 448 kb/s
Channel(s) : 6 channels
Channel positions : Front: L C R, Side: L R, LFE
Sampling rate : 48.0 kHz
Frame rate : 31.250 FPS (1536 spf)
Bit depth : 16 bits
Compression mode : Lossy
Delay relative to video : 42 ms
Stream size : 340 MiB (2%)
Language : Ukrainian
Default : Yes
Forced : Yes

Audio #2
ID : 3
Format :
Format/Info : Digital Theater Systems
Format profile : MA / Core
Mode : 16
Format settings, Endianness : Big
Codec ID : A_DTS
Duration : 1 h 46 min
Bit rate mode : Variable / Constant
Bit rate : 4 135 kb/s / 1 509 kb/s
Channel(s) : 6 channels
Channel positions : Front: L C R, Side: L R, LFE
Sampling rate : 48.0 kHz
Frame rate : 93.750 FPS (512 spf)
Bit depth : 24 bits
Compression mode : Lossless / Lossy
Delay relative to video : 42 ms
Stream size : 3.06 GiB (17%)
Language : English
Default : No
Forced : No

Text #1
ID : 4
Format : PGS
Muxing mode : zlib
Codec ID : S_HDMV/PGS
Codec ID/Info : Picture based subtitle format used on BDs/HD-DVDs
Duration : 1 h 45 min
Bit rate : 8 222 b/s
Count of elements : 1776
Stream size : 6.21 MiB (0%)
Language : English
Default : No
Forced : No

Text #2
ID : 5
Format : PGS
Muxing mode : zlib
Codec ID : S_HDMV/PGS
Codec ID/Info : Picture based subtitle format used on BDs/HD-DVDs
Duration : 1 h 46 min
Bit rate : 7 330 b/s
Count of elements : 1132
Stream size : 5.56 MiB (0%)
Language : English
Default : No
Forced : No
Скріншоти



Джерело: &
Особиста оцінка: 8 - мені сподобалося
Битва титанів / Clash of the Titans (2010) Remux 1080p Ukr/Eng | Sub Eng


Битва титанів / Clash of the Titans (2010) Remux 1080p Ukr/Eng | Sub Eng


Золотий реліз (завантажене не впливає на рейтинг)
 Трекер:    Зареєстрований   

Завантажити / скачати фільм українською



відео для новачків



 Зареєстрований:   2017-03-04 20:16
 Розмір:   18.51 GB 
 Оцінка фільму:   8.5/10 (Голосів: 15)
   
Інші релізи
   Битва титанів / Clash of the Titans (2010) 720p Ukr/Eng | Sub Eng staf777  6 / 0   2.58 GB   2018-08-15 21:23 
   Битва титанів / Clash of the Titans (2010) 1080p mix14  0 / 0   5.43 GB   2012-07-17 10:06 
   Битва Титанів / Clash of the Titans (2010) mini 720p hellforces  2 / 0   1.89 GB   2010-08-01 11:20 
dniprovskij 
Новенький


З нами з: 07.12.14
Востаннє: 01.12.18
Повідомлень: 1

2017-10-24 18:51  
чи є хто на роздачі?
[email protected] 
Поважний учасник


З нами з: 24.03.17
Востаннє: 10.12.18
Повідомлень: 173

2018-09-21 21:20  
Чудовий фільм
Ваш часовий пояс: GMT + 2 Години

Нова тема   Відповісти