Машина часу в джакузі / Hot Tub Time Machine (2010) Remux 1080p 2xUkr/Eng | Sub Eng

Нові коментарі

Нова тема   Відповісти
Автор Повідомлення
staf777 
Відео Гуртом - підтримка та поширення
Відео Гуртом - підтримка та поширення


З нами з: 16.11.16
Востаннє: 12.07.20
Повідомлень: 3867

2017-03-04 15:58  
Машина часу в джакузі / Hot Tub Time Machine (2010) Remux 1080p 2xUkr/Eng | Sub Eng

Машина часу в джакузі / Hot Tub Time Machine (2010) Remux 1080p 2xUkr/Eng | Sub Eng
Оригінальна обкладинка

Машина часу в джакузі / Hot Tub Time Machine (2010) Remux 1080p 2xUkr/Eng | Sub Eng
Жанр: пригодницький, комедія, фантастика
Країна: США



Кінокомпанія: Metro-Goldwyn-Mayer (MGM), United Artists, New Crime Productions
Режисер: Стів Пінк
Актори: Джон Кьюсак, Чеві Чейз, Кріспін Гловер, Ліззі Каплан, Кларк Дьюк, Чарлі МакДермотт, Крістал Лоу, Кейт Волш, Ліндсі Фонсека, Себастіан Стен, Крейг Робінсон та інші

Сюжет:
У 2010 році четверо «геніїв», завдяки своїм експериментам з алкоголем, навчилися керувати просторово-тимчасовим континуумом. Портал, розташований безпосередньо в джакузі на гірськолижному курорті, як їм здалося, дозволяє повернутися в далекий 1986 рік.


Тривалість: 01:38:56
Якість: Remux 1080p
Відео:
кодек:
розмір кадру: 1920x1080
бітрейт: 32.8 Mб/с

Аудіо # 1:
мова: українська
переклад: професійний дубльований
кодек: 5.1
бітрейт: 384 кб/с

Аудіо # 2:
мова: українська
переклад: багатоголосий закадровий
кодек: 2.0
бітрейт: 192 кб/с
запис звуку - xslim, синхронізація - patriot2305

Аудіо # 3:
мова: англійська
переклад: оригінал
кодек: -HD MA 5.1
бітрейт: 4002 кб/с

Субтитри:
мова: англійська
тип: пререндерні
формат: *.pgs
Info
General
Unique ID : 239492038821859518002730854132638030128 (0xB42C7D289C9F3D8EBF203C5AA80C1930)
Complete name : P:\RUTrecker\HOT_TUB_TIME_MACHINE\BDMV\STREAM\Hot Tub Time Machine (2010) [2xUkr,Eng sub.Eng] Remux 1080p [Hurtom].
Format :
Format version : Version 4 / Version 2
File size : 25.9 GiB
Duration : 1 h 38 min
Overall bit rate mode : Variable
Overall bit rate : 37.4 Mb/s
Movie name : Hot Tub Time Machine (2010) [2xUkr,Eng sub.Eng] Remux 1080p [Hurtom]
Encoded date : UTC 2017-03-04 11:57:11
Writing application : v9.8.0 ('Kuglblids') 64bit
Writing library : libebml v1.3.4 + v1.4.5

Video
ID : 1
Format : AVC
Format/Info : Advanced Video Codec
Format profile : [email protected]
Format settings, CABAC : Yes
Format settings, ReFrames : 4 frames
Codec ID : V_MPEG4/ISO/AVC
Duration : 1 h 38 min
Bit rate mode : Variable
Bit rate : 32.8 Mb/s
Maximum bit rate : 35.0 Mb/s
Width : 1 920 pixels
Height : 1 080 pixels
Display aspect ratio : 16:9
Frame rate mode : Constant
Frame rate : 23.976 (24000/1001) FPS
Color space : YUV
Chroma subsampling : 4:2:0
Bit depth : 8 bits
Scan type : Progressive
Bits/(Pixel*Frame) : 0.660
Stream size : 22.7 GiB (88%)
Default : Yes
Forced : No
Color range : Limited
Color primaries : BT.709
Transfer characteristics : BT.709
Matrix coefficients : BT.709

Audio #1
ID : 2
Format : AC-3
Format/Info : Audio Coding 3
Mode extension : CM (complete main)
Format settings, Endianness : Big
Codec ID : A_AC3
Duration : 1 h 38 min
Bit rate mode : Constant
Bit rate : 384 kb/s
Channel(s) : 6 channels
Channel positions : Front: L C R, Side: L R, LFE
Sampling rate : 48.0 kHz
Frame rate : 31.250 FPS (1536 spf)
Bit depth : 16 bits
Compression mode : Lossy
Stream size : 272 MiB (1%)
Language : Ukrainian
Default : Yes
Forced : Yes

Audio #2
ID : 3
Format : AC-3
Format/Info : Audio Coding 3
Mode extension : CM (complete main)
Format settings, Endianness : Big
Codec ID : A_AC3
Duration : 1 h 38 min
Bit rate mode : Constant
Bit rate : 192 kb/s
Channel(s) : 2 channels
Channel positions : Front: L R
Sampling rate : 48.0 kHz
Frame rate : 31.250 FPS (1536 spf)
Bit depth : 16 bits
Compression mode : Lossy
Stream size : 136 MiB (1%)
Language : Ukrainian
Default : No
Forced : No

Audio #3
ID : 4
Format :
Format/Info : Digital Theater Systems
Format profile : MA / Core
Mode : 16
Format settings, Endianness : Big
Codec ID : A_DTS
Duration : 1 h 38 min
Bit rate mode : Variable / Constant
Bit rate : 4 002 kb/s / 1 509 kb/s
Channel(s) : 6 channels
Channel positions : Front: L C R, Side: L R, LFE
Sampling rate : 48.0 kHz
Frame rate : 93.750 FPS (512 spf)
Bit depth : 24 bits
Compression mode : Lossless / Lossy
Stream size : 2.77 GiB (11%)
Language : English
Default : No
Forced : No

Text
ID : 5
Format : PGS
Muxing mode : zlib
Codec ID : S_HDMV/PGS
Codec ID/Info : Picture based subtitle format used on BDs/HD-DVDs
Duration : 1 h 38 min
Bit rate : 19.1 kb/s
Count of elements : 4480
Stream size : 13.4 MiB (0%)
Language : English
Default : No
Forced : No
Скріншоти




Джерело: &
Особиста оцінка: 0 - не дивився
ЗАЛИШАЙТЕСЬ ЯКОМОГА ДОВШЕ НА РОЗДАЧІ!

СКАЧАВ САМ - ДАЙ СКАЧАТИ ІНШИМ



Золотий реліз (завантажене не впливає на рейтинг)
 Трекер:    Зареєстрований   

Завантажити / скачати фільм українською



відео для новачків



 Зареєстрований:   2017-03-04 15:58
 Розмір:   25.86 GB 
 Оцінка фільму:   8.1/10 (Голосів: 10)
   
Ваш часовий пояс: GMT + 2 Години

Нова тема   Відповісти