Karfagen - Spektra (2016) [FLAC] | Symphonic Prog / Progressive Rock

Нові коментарі

Нова тема   Відповісти
Автор Повідомлення
kolpavel 
VIP


З нами з: 04.05.14
Востаннє: 22.08.17
Повідомлень: 1155

2017-03-04 12:48  
Karfagen - Spektra (2016) [FLAC] | Symphonic Prog / Progressive Rock

Karfagen - Spektra (2016) [FLAC] | Symphonic Prog / Progressive Rock


Стиль: Symphonic Prog Progressive Rock
Країна, місто: Україна, Харків
Сайти: Офіційний сайт
Видавець: Caerllysi Music (CM16017)
Виконавці:

Антон Калугін / клавіші, ударні, вокал, аранжування
Макс Величко / електричні, акустичні і 12 струнні гітари
Сергій Балалаєв / барабани (1,4,5)
Iван Рубанчук / барабани (8-11,14)
Костя Шепеленко / барабани (2,16)
Олег Прохоров / бас (1,2,4,5,16)
Костянтин Іоненко / бас (8-11,14)
Ольга Ростовська / ключі, вокал (2,11), вокал (4)
Сергiй Ковальов / акордеон (4,8-11,13), вокал (4)
Марія Барановська / скрипка (1,2,4,8-10,14)
Олександр Пастухов / бас (8,9,11)
Роман Горiлов / вокал (4)
Олег Пашковський / рояль (14)
Леся Кофанова / флейта (14)
Михайло Сидоренко / альт-саксофон (14)
Ольга Водолазська / рейнстик, шейкери, трикутник (16)

Пісні:

    PHASE 1

    01. Spektra (7:11)
    02. Troy (3:33)
    03. Transaleatorica II (2:34)
    04. Terra Incognita (3:14)
    05. Celebration (3:50)
    06. Homonymous (Part 1) (2:30)
    07. Angel Tears (1:27)

    PHASE 2

    OLYMPIA (Quadrology) (21:30)
    08. Zeus (6:13)
    09. Dionis (4:41)
    10. Poseidon (5:15)
    11. Aurora (5:21)
    12. Homonymous (Part 2) (2:35)

    PHASE 3

    13. Dios Pyros (2:56)
    14. Natural Charm (5:36)
    15. Eye Witness (1:38)
    16. Juggler And The Cloud (Studio Live) (4:31

Тривалість: 01:03:05
Мова: інструментальні композиції, (4) - латинська
Аудіо-кодек: FLAC
Бітрейт: 869 кб/с
Джерело: трекер
Додаткова інформація:
EAC
Exact Audio Copy V1.3 from 2. September 2016

EAC extraction logfile from 1. December 2016, 12:00

Karfagen / Spektra

Used drive : TSSTcorpCDDVDW SH-222BB Adapter: 0 ID: 1

Read mode : Secure
Utilize accurate stream : Yes
Defeat audio cache : Yes
Make use of C2 pointers : No

Read offset correction : 6
Overread into Lead-In and Lead-Out : No
Fill up missing offset samples with silence : Yes
Delete leading and trailing silent blocks : No
Null samples used in CRC calculations : Yes
Used interface : Installed external ASPI interface

Used output format : User Defined Encoder
Selected bitrate : 1024 kBit/s
Quality : High
Add ID3 tag : No
Command line compressor : C:\Program Files (x86)\Exact Audio Copy\wavpack.exe
Additional command line options : -hm %source% %dest%

TOC of the extracted CD

Track | Start | Length | Start sector | End sector
---------------------------------------------------------
1 | 0:00.00 | 7:11.24 | 0 | 32348
2 | 7:11.24 | 3:33.27 | 32349 | 48350
3 | 10:44.51 | 2:33.54 | 48351 | 59879
4 | 13:18.30 | 3:14.06 | 59880 | 74435
5 | 16:32.36 | 3:50.31 | 74436 | 91716
6 | 20:22.67 | 2:29.55 | 91717 | 102946
7 | 22:52.47 | 1:26.72 | 102947 | 109468
8 | 24:19.44 | 6:12.47 | 109469 | 137415
9 | 30:32.16 | 4:41.07 | 137416 | 158497
10 | 35:13.23 | 5:14.42 | 158498 | 182089
11 | 40:27.65 | 5:20.39 | 182090 | 206128
12 | 45:48.29 | 2:34.55 | 206129 | 217733
13 | 48:23.09 | 2:56.15 | 217734 | 230948
14 | 51:19.24 | 5:36.25 | 230949 | 256173
15 | 56:55.49 | 1:38.13 | 256174 | 263536
16 | 58:33.62 | 4:31.26 | 263537 | 283887

Range status and errors

Selected range

Filename I:\NetLab\Karfagen - Spektra\Karfagen - Spektra.wav

Peak level 100.0 %
Extraction speed 7.2 X
Range quality 99.9 %
Test CRC 8B80E37F
Copy CRC 8B80E37F
Copy OK

No errors occurred

AccurateRip summary

Track 1 not present in database
Track 2 not present in database
Track 3 not present in database
Track 4 not present in database
Track 5 not present in database
Track 6 not present in database
Track 7 not present in database
Track 8 not present in database
Track 9 not present in database
Track 10 not present in database
Track 11 not present in database
Track 12 not present in database
Track 13 not present in database
Track 14 not present in database
Track 15 not present in database
Track 16 not present in database

None of the tracks are present in the AccurateRip database

End of status report

---- CUETools DB Plugin V2.1.6

[CTDB TOCID: NxGl91gi_5R2u.s0IPttsTBVtlo-] found
Submit result: NxGl91gi_5R2u.s0IPttsTBVtlo- has been confirmed
Track | CTDB Status
1 | (1/1) Accurately ripped
2 | (1/1) Accurately ripped
3 | (1/1) Accurately ripped
4 | (1/1) Accurately ripped
5 | (1/1) Accurately ripped
6 | (1/1) Accurately ripped
7 | (1/1) Accurately ripped
8 | (1/1) Accurately ripped
9 | (1/1) Accurately ripped
10 | (1/1) Accurately ripped
11 | (1/1) Accurately ripped
12 | (1/1) Accurately ripped
13 | (1/1) Accurately ripped
14 | (1/1) Accurately ripped
15 | (1/1) Accurately ripped
16 | (1/1) Accurately ripped
(.CUE)
REM GENRE "Symphonic Progressive Rock"
REM DATE 2016
REM DISCID CF0EC910
REM COMMENT "ExactAudioCopy v1.3"
REM COMPOSER ""
PERFORMER "Karfagen"
TITLE "Spektra"
FILE "Karfagen - 2016 - Spektra.flac" WAVE
TRACK 01 AUDIO
TITLE "Spektra"
PERFORMER "Karfagen"
REM COMPOSER ""
FLAGS DCP
INDEX 01 00:00:00
TRACK 02 AUDIO
TITLE "Troy"
PERFORMER "Karfagen"
REM COMPOSER ""
FLAGS DCP
INDEX 01 07:11:24
TRACK 03 AUDIO
TITLE "Transaleatorica 2"
PERFORMER "Karfagen"
REM COMPOSER ""
FLAGS DCP
INDEX 01 10:44:51
TRACK 04 AUDIO
TITLE "Terra Incognita"
PERFORMER "Karfagen"
REM COMPOSER ""
FLAGS DCP
INDEX 01 13:18:30
TRACK 05 AUDIO
TITLE "Celebration"
PERFORMER "Karfagen"
REM COMPOSER ""
FLAGS DCP
INDEX 01 16:32:36
TRACK 06 AUDIO
TITLE "Homonymous (part 1)"
PERFORMER "Karfagen"
REM COMPOSER ""
FLAGS DCP
INDEX 01 20:22:67
TRACK 07 AUDIO
TITLE "Angel Tears"
PERFORMER "Karfagen"
REM COMPOSER ""
FLAGS DCP
INDEX 01 22:52:47
TRACK 08 AUDIO
TITLE " Zeus"
PERFORMER "Karfagen"
REM COMPOSER ""
FLAGS DCP
INDEX 01 24:19:44
TRACK 09 AUDIO
TITLE "Dionis"
PERFORMER "Karfagen"
REM COMPOSER ""
FLAGS DCP
INDEX 01 30:32:16
TRACK 10 AUDIO
TITLE "Poseidon"
PERFORMER "Karfagen"
REM COMPOSER ""
FLAGS DCP
INDEX 01 35:13:23
TRACK 11 AUDIO
TITLE "Aurora"
PERFORMER "Karfagen"
REM COMPOSER ""
FLAGS DCP
INDEX 01 40:27:65
TRACK 12 AUDIO
TITLE "Homonymous (part 2)"
PERFORMER "Karfagen"
REM COMPOSER ""
FLAGS DCP
INDEX 01 45:48:29
TRACK 13 AUDIO
TITLE "Dios Pyros"
PERFORMER "Karfagen"
REM COMPOSER ""
FLAGS DCP
INDEX 01 48:23:09
TRACK 14 AUDIO
TITLE "Natural Charm"
PERFORMER "Karfagen"
REM COMPOSER ""
FLAGS DCP
INDEX 01 51:19:24
TRACK 15 AUDIO
TITLE "Eye Witness"
PERFORMER "Karfagen"
REM COMPOSER ""
FLAGS DCP
INDEX 01 56:55:49
TRACK 16 AUDIO
TITLE "Juggler and the Cloud (studio live)"
PERFORMER "Karfagen"
REM COMPOSER ""
FLAGS DCP
INDEX 01 58:33:62


Якщо Ви справді бажаєте підтримати українське - після прослуховування, якщо музика вам сподобалась, придбайте ліцензійний диск. Підтримаймо вітчизняних виконавців!


Срібний реліз (на рейтинг впливає 50% завантаженого)
 Трекер:    Зареєстрований   

Завантажити / скачати українську музику



відео для новачків



 Зареєстрований:   2017-03-04 12:48
 Розмір:   463 MB 
 Оцінка музики:   9.8/10 (Голосів: 5)
   
kolpavel 
VIP


З нами з: 04.05.14
Востаннє: 22.08.17
Повідомлень: 1155

2017-03-04 13:08  
Дякую ArtDon за такий якiсний пiдгiн.


kolpavel 
VIP


З нами з: 04.05.14
Востаннє: 22.08.17
Повідомлень: 1155

2017-03-04 18:18  
https://toloka.to/t73050 Karfagen - Дискографія (9 альбомів) (2006-2016) [MP3]
respect14 
VIP


З нами з: 26.01.11
Востаннє: 21.08.17
Повідомлень: 485

2017-03-08 16:25  
Йосип босий...нічого собі група...скільки ж там народу Rolleyes (4)
Ваш часовий пояс: GMT + 2 Години

Нова тема   Відповісти