Пластик / Plastic (2014) Remux 1080p Ukr/Eng | Sub Eng

Нові коментарі

Нова тема   Відповісти
Автор Повідомлення
staf777 
Відео Гуртом - підтримка та поширення
Відео Гуртом - підтримка та поширення


З нами з: 16.11.16
Востаннє: 22.05.19
Повідомлень: 2376

2017-03-03 19:45  
Пластик / Plastic (2014) Remux 1080p Ukr/Eng | Sub Eng

Пластик / Plastic (2014) Remux 1080p Ukr/Eng | Sub Eng
Оригінальна обкладинка

Пластик / Plastic (2014) Remux 1080p Ukr/Eng | Sub Eng
Жанр: екшн, комедія, кримінальний, драма
Країна: Велика Британія



Кінокомпанія: Gateway Films
Режисер: Джуліан Ґілбі
Актори: Едвард Спелірс, Віл Поултер, Елфі Аллен, Себастьян Де Соуза, Ема Ріґбі, Томас Кречман, Ґрем МакТавіш, Мем Ферда, Майкл Біспінґ, Чарлі Палмер Ротвел, Террі Стоун, Малез Джов, Ешлі Чін, Адам Фоґерті

Сюжет:
Фільм заснований на реальній історії. Банді друзів вдалося проникнути в одну з найбільших в світі компаній, яка працює з кредитними картками. Їм вдається провернути одну з найзухваліших крадіжок в британській історії.


Тривалість: 01:41:56
Якість: Remux 1080p
Відео:
кодек:
розмір кадру: 1920x1080
бітрейт: 29 Мб/с

Аудіо # 1:
мова: українська
переклад: багатоголосий закадровий
кодек: 2.0
бітрейт: 192 кб/с

Аудіо # 2:
мова: англійська
переклад: оригінал
кодек: -HD MA 5.1
бітрейт: 2089 кб/с

Джерело озвучення:


Субтитри:
мова: англійська
тип: пререндерні
формат: *.pgs
Info
General
Unique ID : 228622646522974352914895867002160755212 (0xABFF1EBE3E003F789A3465BD9AD1320C)
Complete name : H:\HDClub\PLASTIC Remux HDCLUB\BDMV\STREAM\00000.
Format :
Format version : Version 4 / Version 2
File size : 22.3 GiB
Duration : 1 h 41 min
Overall bit rate mode : Variable
Overall bit rate : 31.3 Mb/s
Movie name : Plastic (2014) [Ukr,Eng sub.Eng] Remux 1080p [Hurtom]
Encoded date : UTC 2017-03-04 05:58:16
Writing application : v9.8.0 ('Kuglblids') 64bit
Writing library : libebml v1.3.4 + v1.4.5

Video
ID : 1
Format : AVC
Format/Info : Advanced Video Codec
Format profile : [email protected]
Format settings, CABAC : Yes
Format settings, ReFrames : 4 frames
Format settings, GOP : M=3, N=24
Codec ID : V_MPEG4/ISO/AVC
Duration : 1 h 41 min
Bit rate mode : Variable
Bit rate : 29.0 Mb/s
Maximum bit rate : 35.0 Mb/s
Width : 1 920 pixels
Height : 1 080 pixels
Display aspect ratio : 16:9
Frame rate mode : Constant
Frame rate : 24.000 FPS
Standard : NTSC
Color space : YUV
Chroma subsampling : 4:2:0
Bit depth : 8 bits
Scan type : Progressive
Bits/(Pixel*Frame) : 0.583
Stream size : 20.7 GiB (93%)
Default : Yes
Forced : No
Color range : Limited
Color primaries : BT.709
Transfer characteristics : BT.709
Matrix coefficients : BT.709

Audio #1
ID : 2
Format : AC-3
Format/Info : Audio Coding 3
Mode extension : CM (complete main)
Format settings, Endianness : Big
Codec ID : A_AC3
Duration : 1 h 41 min
Bit rate mode : Constant
Bit rate : 192 kb/s
Channel(s) : 2 channels
Channel positions : Front: L R
Sampling rate : 48.0 kHz
Frame rate : 31.250 FPS (1536 spf)
Bit depth : 16 bits
Compression mode : Lossy
Stream size : 140 MiB (1%)
Language : Ukrainian
Default : Yes
Forced : Yes

Audio #2
ID : 3
Format :
Format/Info : Digital Theater Systems
Format profile : MA / Core
Mode : 16
Format settings, Endianness : Big
Codec ID : A_DTS
Duration : 1 h 41 min
Bit rate mode : Variable / Constant
Bit rate : 2 089 kb/s / 768 kb/s
Channel(s) : 6 channels
Channel positions : Front: L C R, Side: L R, LFE
Sampling rate : 48.0 kHz
Frame rate : 93.750 FPS (512 spf)
Bit depth : 24 bits
Compression mode : Lossless / Lossy
Stream size : 1.49 GiB (7%)
Language : English
Default : No
Forced : No

Text
ID : 4
Format : PGS
Muxing mode : zlib
Codec ID : S_HDMV/PGS
Codec ID/Info : Picture based subtitle format used on BDs/HD-DVDs
Duration : 1 h 33 min
Bit rate : 22.9 kb/s
Count of elements : 2690
Stream size : 15.3 MiB (0%)
Language : English
Default : No
Forced : No
Скріншоти




Подяка Neytreenor та ninenine за українську доріжку
Джерело: &
Особиста оцінка: 8 - мені сподобалося
Пластик / Plastic (2014) Remux 1080p Ukr/Eng | Sub Eng


Пластик / Plastic (2014) Remux 1080p Ukr/Eng | Sub Eng


Золотий реліз (завантажене не впливає на рейтинг)
 Трекер:    Зареєстрований   

Завантажити / скачати фільм українською



відео для новачків



 Зареєстрований:   2017-03-04 10:19
 Розмір:   22.3 GB 
 Оцінка фільму:   6.6/10 (Голосів: 5)
   
Інші релізи
   Пластик / Plastic (2014) 1080p Ukr/Eng | Sub Eng Загора  0 / 0   9.13 GB   2016-05-22 14:14 
   Пластик / Plastic (2014) Ukr/Eng | Sub Eng Загора  2 / 0   1.6 GB   2016-05-22 12:17 
   Пластик / Plastic (2014) 720p Ukr/Eng | Sub Eng Загора  0 / 0   4.27 GB   2016-05-22 11:39 
   Пластик / Plastic (2014) AVC Ukr/Eng | Sub Eng ninenine  2 / 0   2 GB   2016-05-21 18:12 
Ваш часовий пояс: GMT + 2 Години

Нова тема   Відповісти