Кубо і Легенда самурая / Kubo and the Two Strings (2016) 1080p 3D [Half OverUnder] Ukr/Eng | Sub Eng

Нові коментарі

Нова тема   Відповісти
Автор Повідомлення
Anonymous 







2017-03-03 02:21  
Кубо і Легенда самурая / Kubo and the Two Strings (2016) 1080p 3D [Half OverUnder] Ukr/Eng | Sub Eng



Жанр: анімація, фентезі, пригодницький, сімейний
Країна: США

Премія Британської кіноакадемії за Найкращий анімаційний фільм



Кінокомпанія: Laika Entertainment
Режисер: Тревіс Найт / Travis Knight
Актори: Арт Паркінсон / Art Parkinson, Шарліз Терон / Charlize Theron, Ральф Файнс / Ralph Fiennes, Кері-Гіроюкі Таґава / Cary-Hiroyuki Tagawa, Джордж Такей / George Takei, Руні Мара / Rooney Mara, Меттью МакКонахі / Matthew McConaughey, Міна Нодзі / Minae Noji, Бренда Ваккаро / Brenda Vaccaro, Мейрік Мерфі / Meyrick Murphy та інші

Сюжет:
Епічна анімаційна пригода розпочинається в оповитій таємницею японській провінції: розумний і відважний Кубо живе звичайним життям, не підозрюючи, що він спадкоємець славного роду самураїв. Духи помсти, які з’являються мов грім серед неба, змушують юного бійця кинути виклик долі. З допомогою досвідчених Хранителів: Мавпи і Жука, хлопець будь-що має розгадати таємницю своєї спадщини і виконати своє призначення...

Українські трейлери:





Рейтинг MPAA: PG - рекомендується присутність батьків
Вікова категорія: 6+

Тривалість: 01:41:36
Якість: 1080p 3D [Ash61]
Відео:
кодек:
розмір кадру: 1920 х 1080
бітрейт: 10,9 Мб/с [crf=15.7]
формат 3D: Half OverUnder / Вертикальна анаморфна стереопара
порядок ракурсів: лівий ракурс перший
Відео для перегляду на 3D обладнанні!

Аудіо # 1:
мова: українська
переклад: професійний дубльований
кодек: 2.0
бітрейт: 192 кб/с

Аудіо # 2:
мова: англійська
переклад: оригінал
кодек: 5.1
бітрейт: 640 кб/с

Субтитри # 1-2:
мова: англійська (повні, SDH)
тип: програмні (м'які)
формат: srt

Збережено оригінальні розділи, як на Blu-ray
Info
Код:
Format                      :
Format version              : Version 4 / Version 2
File size                   : 8.31 GiB
Duration                    : 1 h 41 min
Overall bit rate            : 11.7 Mb/s

Video
ID                          : 1
Format                      : AVC
Format/Info                 : Advanced Video Codec
Format profile              : [email protected]
Format settings, CABAC      : Yes
Format settings, ReFrames   : 4 frames
Codec ID                    : V_MPEG4/ISO/AVC
Duration                    : 1 h 41 min
Bit rate                    : 10.9 Mb/s
Width                       : 1 920 pixels
Height                      : 1 080 pixels
Display aspect ratio        : 16:9
Frame rate mode             : Constant
Frame rate                  : 23.976 (24000/1001) FPS
Color space                 : YUV
Chroma subsampling          : 4:2:0
Bit depth                   : 8 bits
Scan type                   : Progressive
Bits/(Pixel*Frame)          : 0.219
Stream size                 : 7.72 GiB (93%)
Title                       : Кубо і Легенда самурая / Kubo and the Two Strings (2016) 1080p 3D Half OverUnder [Ash61]
Writing library             : core 146 r2538 121396c
Encoding settings           : cabac=1 / ref=4 / deblock=1:-3:-3 / analyse=0x3:0x113 / me=umh / subme=10 / psy=1 / psy_rd=1.00:0.00 / mixed_ref=1 / me_range=32 / chroma_me=1 / trellis=2 / 8x8dct=1 / cqm=0 / deadzone=21,11 / fast_pskip=1 / chroma_qp_offset=-2 / threads=12 / lookahead_threads=2 / sliced_threads=0 / nr=0 / decimate=1 / interlaced=0 / bluray_compat=0 / constrained_intra=0 / bframes=9 / b_pyramid=2 / b_adapt=2 / b_bias=0 / direct=3 / weightb=1 / open_gop=0 / weightp=2 / keyint=250 / keyint_min=23 / scenecut=40 / intra_refresh=0 / rc_lookahead=60 / rc=crf / mbtree=1 / crf=15.7 / qcomp=0.70 / qpmin=0 / qpmax=69 / qpstep=4 / vbv_maxrate=40000 / vbv_bufsize=30000 / crf_max=0.0 / nal_hrd=none / filler=0 / frame-packing=4 / ip_ratio=1.40 / aq=1:0.70
Language                    : English
Default                     : Yes
Forced                      : No

Audio #1
ID                          : 2
Format                      : AC-3
Format/Info                 : Audio Coding 3
Mode extension              : CM (complete main)
Format settings, Endianness : Big
Codec ID                    : A_AC3
Duration                    : 1 h 41 min
Bit rate mode               : Constant
Bit rate                    : 192 kb/s
Channel(s)                  : 2 channels
Channel positions           : Front: L R
Sampling rate               : 48.0 kHz
Frame rate                  : 31.250 FPS (1536 spf)
Bit depth                   : 16 bits
Compression mode            : Lossy
Stream size                 : 140 MiB (2%)
Title                       : Dub [Line], 2.0 192 Kbps [Hurtom-Covenant]
Language                    : Ukrainian
Default                     : Yes
Forced                      : Yes

Audio #2
ID                          : 3
Format                      : AC-3
Format/Info                 : Audio Coding 3
Mode extension              : CM (complete main)
Format settings, Endianness : Big
Codec ID                    : A_AC3
Duration                    : 1 h 41 min
Bit rate mode               : Constant
Bit rate                    : 640 kb/s
Channel(s)                  : 6 channels
Channel positions           : Front: L C R, Side: L R, LFE
Sampling rate               : 48.0 kHz
Frame rate                  : 31.250 FPS (1536 spf)
Bit depth                   : 16 bits
Compression mode            : Lossy
Stream size                 : 465 MiB (5%)
Title                       : Original, 5.1 640 Kbps
Language                    : English
Default                     : No
Forced                      : No

Text #1
ID                          : 4
Format                      : UTF-8
Codec ID                    : S_TEXT/UTF8
Codec ID/Info               : UTF-8 Plain Text
Duration                    : 1 h 32 min
Bit rate                    : 41 b/s
Count of elements           : 1033
Stream size                 : 28.2 KiB (0%)
Title                       : Eng full
Language                    : English
Default                     : No
Forced                      : No

Text #2
ID                          : 5
Format                      : UTF-8
Codec ID                    : S_TEXT/UTF8
Codec ID/Info               : UTF-8 Plain Text
Duration                    : 1 h 32 min
Bit rate                    : 46 b/s
Count of elements           : 1240
Stream size                 : 31.8 KiB (0%)
Title                       : Eng SDH
Language                    : English
Default                     : No
Forced                      : No

Menu
00:00:00.000                : :1
00:02:56.508                : :2
00:07:10.637                : :3
00:12:08.894                : :4
00:17:19.954                : :5
00:21:40.798                : :6
00:25:58.390                : :7
00:32:11.554                : :8
00:36:58.048                : :9
00:42:33.509                : :10
00:47:48.657                : :11
00:50:47.668                : :12
00:56:48.947                : :13
01:02:56.313                : :14
01:08:28.270                : :15
01:12:40.605                : :16
01:20:00.628                : :17
01:24:22.265                : :18
01:28:46.069                : :19
01:32:49.563                : :20


Підтримати придбання українських доріжок можна тут



Джерело: &
Подяка за українську доріжку п.Covenant

ЗАЛИШАЙТЕСЬ ЯКОМОГА ДОВШЕ НА РОЗДАЧІ
ЗАВАНТАЖИВ САМ - ДАЙ ЗАВАНТАЖИТИ ІНШИМ!


 Трекер:    Зареєстрований   

Завантажити / скачати мультфільм українською



відео для новачків



 Зареєстрований:   2017-03-03 02:43
 Розмір:   8.31 GB 
 Оцінка мультфільму:   3.6/10 (Голосів: 15)
   
Ваш часовий пояс: GMT + 2 Години

Нова тема   Відповісти