Біжи, Лоло, біжи / Lola rennt (1998) AVC

Нові коментарі

Нова тема   Відповісти
Автор Повідомлення
Anonymous 







2017-03-02 18:45  
Біжи, Лоло, біжи / Lola rennt (1998) AVC


Біжи, Лоло, біжи / Lola rennt (1998) AVC


Кінокомпанія: X-Filme Creative Pool, Arte, WDR
Жанр: пригодницький, кримінальний, романтичний
Країна: Німеччина



Режисер: Том Тиквер / Tom Tykwer
Актори: Франка Потенте / Franka Potente, Моріц Бляйбтрой / Moritz Bleibtreu, Йоахім Круль / Joachim Król та інші

Сюжет:
Лола і Манні живуть в Берліні і шалено кохають один одного. І коли Манні - маленький кур'єр великого бандита - втрачає торбу з грошима свого боса, врятувати його може лише Лола. Але на те, щоб роздобути зовсім не маленьку суму в сто тисяч марок, у дівчини є тільки 20 хвилин. Кожна секунда може означати різницю між життям і смертю. Отже, як слід відсапайтеся і приготуйтеся до запаморочливої і небезпечної пробіжки в компанії зі стрімкою Лолою. В дорозі вас чекає не один сюрприз і не один варіант розвитку подій...


Тривалість: 01:19:31
Якість: AVC
Відео:
кодек:
розмір кадру: 1072х584
бітрейт: 3200 кб/с

Аудіо:
мова: українська
переклад: багатоголосий закадровий
кодек: 2.0
бітрейт: 192 кб/с


Збережено ориґінальні розділи, як на Blu-Ray

Скріншоти













Info
General
Unique ID : 192304222732477994609231783850936595689 (0x90AC72338FA1045BA01B0FCAAEE374E9)
Complete name : D:\Lola rennt (1998) AVC.
Format :
Format version : Version 4 / Version 2
File size : 1.88 GiB
Duration : 1h 19mn
Overall bit rate : 3 391 Kbps
Encoded date : UTC 2017-02-27 21:37:43
Writing application : mkvmerge v9.3.1 ('Mask Machine') 64bit
Writing library : libebml v1.3.4 + libmatroska v1.4.5
DURATION : 01:19:31.136000000
NUMBER_OF_FRAMES : 149098
NUMBER_OF_BYTES : 114507264
_STATISTICS_WRITING_APP : mkvmerge v9.3.1 ('Mask Machine') 64bit
_STATISTICS_WRITING_DATE_UTC : 2017-02-27 21:37:43
_STATISTICS_TAGS : BPS DURATION NUMBER_OF_FRAMES NUMBER_OF_BYTES

Video
ID : 1
Format : AVC
Format/Info : Advanced Video Codec
Format profile : [email protected]
Format settings, CABAC : Yes
Format settings, ReFrames : 11 frames
Codec ID : V_MPEG4/ISO/AVC
Duration : 1h 19mn
Bit rate : 3 200 Kbps
Width : 1 072 pixels
Height : 584 pixels
Display aspect ratio : 1.85:1
Frame rate mode : Constant
Frame rate : 23.976 fps
Color space : YUV
Chroma subsampling : 4:2:0
Bit depth : 8 bits
Scan type : Progressive
Bits/(Pixel*Frame) : 0.213
Stream size : 1.74 GiB (92%)
Writing library : core 115 r2008 4c552d8
Encoding settings : cabac=1 / ref=11 / deblock=1:-2:-1 / analyse=0x3:0x133 / me=umh / subme=10 / psy=1 / psy_rd=1.00:0.00 / mixed_ref=1 / me_range=32 / chroma_me=1 / trellis=2 / 8x8dct=1 / cqm=0 / deadzone=21,11 / fast_pskip=0 / chroma_qp_offset=-2 / threads=12 / sliced_threads=0 / nr=0 / decimate=0 / interlaced=0 / bluray_compat=0 / constrained_intra=0 / bframes=9 / b_pyramid=2 / b_adapt=2 / b_bias=0 / direct=3 / weightb=1 / open_gop=0 / weightp=2 / keyint=250 / keyint_min=23 / scenecut=40 / intra_refresh=0 / rc=2pass / mbtree=0 / bitrate=3200 / ratetol=1.0 / qcomp=0.70 / qpmin=0 / qpmax=69 / qpstep=4 / cplxblur=20.0 / qblur=0.5 / ip_ratio=1.40 / pb_ratio=1.30 / aq=1:1.00
Language : German
Default : Yes
Forced : No
DURATION : 01:19:31.142000000
NUMBER_OF_FRAMES : 114393
NUMBER_OF_BYTES : 1906583433
_STATISTICS_WRITING_APP : mkvmerge v9.3.1 ('Mask Machine') 64bit
_STATISTICS_WRITING_DATE_UTC : 2017-02-27 21:37:43
_STATISTICS_TAGS : BPS DURATION NUMBER_OF_FRAMES NUMBER_OF_BYTES

Audio
ID : 2
Format : AC-3
Format/Info : Audio Coding 3
Mode extension : CM (complete main)
Format settings, Endianness : Big
Codec ID : A_AC3
Duration : 1h 19mn
Bit rate mode : Constant
Bit rate : 192 Kbps
Channel(s) : 2 channels
Channel positions : Front: L R
Sampling rate : 48.0 KHz
Compression mode : Lossy
Stream size : 109 MiB (6%)
Language : Ukrainian
Default : Yes
Forced : No

Menu
00:00:00.000 : en:Chapter 1
00:04:37.568 : en:Chapter 2
00:11:36.612 : en:Chapter 3
00:15:02.943 : en:Chapter 4
00:19:22.452 : en:Chapter 5
00:23:21.942 : en:Chapter 6
00:26:59.576 : en:Chapter 7
00:34:37.950 : en:Chapter 8
00:38:25.970 : en:Chapter 9
00:42:24.750 : en:Chapter 10
00:49:34.554 : en:Chapter 11
00:54:29.432 : en:Chapter 12
00:58:27.420 : en:Chapter 13
01:01:35.733 : en:Chapter 14
01:04:29.532 : en:Chapter 15
01:09:15.734 : en:Chapter 16
01:12:55.954 : en:Chapter 17
01:15:23.560 : en:Chapter 18
01:19:30.140 : en:Chapter 19
Джерело: &
Особиста оцінка: 8 - гарний артгаус, мені сподобалось
Подяка п. Tanat13 за доріжку


Срібний реліз (на рейтинг впливає 50% завантаженого)
 Трекер:    Зареєстрований   

Завантажити / скачати фільм українською



відео для новачків



 Зареєстрований:   2017-03-02 18:45
 Розмір:   1.88 GB 
 Оцінка фільму:   4.5/10 (Голосів: 17)
   
Інші релізи
   Біжи, Лоло, біжи / Lola rennt (1998) Ukr/Deu patriot2305  6 / 0   1.35 GB   2014-09-02 15:04 
380983801076 
Свій


З нами з: 30.03.12
Востаннє: 20.08.17
Повідомлень: 134

2017-03-02 19:49  
Як фільм?
victor_v 
Свій


З нами з: 06.12.07
Востаннє: 19.08.17
Повідомлень: 126

2017-03-02 21:20  
Мені сподобався, але дивився я його ще у далеких 90-х і без українського перекладу. Можливо тепер він сприйматиметься інакше. Але тоді дуже сподобався :-). Драйвовий. Рекомендую.
kupchyk 
Новенький


З нами з: 24.01.11
Востаннє: 18.08.17
Повідомлень: 17

2017-03-03 13:52  
Дійсно цікаво, як фільм зараз сприйметься )) А в часи коли він вийшов, це було щось!
Ваш часовий пояс: GMT + 2 Години

Нова тема   Відповісти