Гран Торіно / Ґран Торіно / Gran Torino (2008) 720p-mini 2xUkr

Нові коментарі

Нова тема   Відповісти
Автор Повідомлення
Anonymous 







2017-03-02 18:44  
Ґран Торіно / Гран Торіно / Gran Torino (2008) 720p-mini 2xUkr


Гран Торіно / Ґран Торіно / Gran Torino (2008) 720p-mini 2xUkr


Жанр: драма
Країна: США , Німечинна



Кінокомпанія: Matten Productions, Double Nickel Entertainment, Gerber Pictures
Режисер: Клінт Іствуд (Clint Eastwood)
Актори: Клінт Іствуд (Clint Eastwood), Бі Ванґ / Bee Vang, Крістофер Керлі / Christopher Carley, Ені Гер / Ahney Her, Браян Гейлі / Brian Haley, Джеральдін Г'юз / Geraldine Hughes, Дріма Вокер / Dreama Walker, Брайан Гоу / Brian Howe, Джон Керролл Лінч / John Carroll Lynch, Вільям Гілл / William Hill

Сюжет:
Волт Ковальські - ветеран Корейської війни, самотня стара людина з твердими принципами, у якої після смерті дружини не залишилось нічого в цьому світі, окрім будинку, гвинтівки, з якою Волт пройшов усю війну, та автомобіля. В той же час довкола оселі Волта все більше і більше будинків купуються азіатами, які втікають від комуністичної влади, і квартал починає перетворюватись на такий собі "чайнатаун" - з молодіжними бандами, наркотиками, грабіжництвом та ґвалтуваннями. Якось увечері він ловить сина своїх нових сусідів на місці злочину - він намагався викрасти у Волта основний скарб його життя: класичний седан Ford Gran Torino 1972-го року випуску. Звісно, це не робить почуття Волта до азіатів більш теплими. Але дуже швидко з'ясовується, що хлопця просто примусила до злочину одна з місцевих банд, яка тепер переслідує його за небажання стати такими, як вони - і тоді Волт стає на його захист і намагається допомогти юному китайцю зайняти гідне місце в американському житті.


Тривалість: 01:56:35
Якість:
Відео:
кодек:
розмір кадру: 1280х536
бітрейт: 1644 кб/с

Аудіо # 1:
мова: українська
переклад: багатоголосий закадровий |Omikron|
кодек: 5.1
бітрейт: 448 кб/с
Ролі озвучили
Ролі озвучили: Клінт Іствуд — Василь Мазур, Євген Малуха, Павло Скороходько, Андрій Альохін, Наталя Романько-Кисельова, Дмитро Тварковський, Анна Чиж, Сергій Труфанов, Павло Голов та інші.

Фільм перекладено і озвучено на студії Омікрон на замовлення Hurtom.com, за підтримки fishMD
Аудіо # 2:
мова: українська
переклад: багатоголосий закадровий
кодек: 2.0
бітрейт: 192 кб/с
Ролі озвучили
Ролі озвучили: Владислав Пупков, Володимир Терещук, Дмитро Терещук, ще один чоловічий і один жіночий

Збережено ориґінальні розділи, як на Blu-Ray

Скріншоти













Info
General
Unique ID : 237170877900410334923421336172885676400 (0xB26D7316EBD8C14AAA5F218E082B9170)
Complete name : D:\Gran Torino (2008) [2xUkr] AVC.
Format :
Format version : Version 4 / Version 2
File size : 1.90 GiB
Duration : 1h 56mn
Overall bit rate : 2 330 Kbps
Encoded date : UTC 2017-02-27 21:33:38
Writing application : mkvmerge v9.3.1 ('Mask Machine') 64bit
Writing library : libebml v1.3.4 + libmatroska v1.4.5
DURATION : 01:56:34.665000000
NUMBER_OF_FRAMES : 167704
NUMBER_OF_BYTES : 1476271661
_STATISTICS_WRITING_APP : mkvmerge v9.3.1 ('Mask Machine') 64bit
_STATISTICS_WRITING_DATE_UTC : 2017-02-27 21:33:38
_STATISTICS_TAGS : BPS DURATION NUMBER_OF_FRAMES NUMBER_OF_BYTES

Video
ID : 1
Format : AVC
Format/Info : Advanced Video Codec
Format profile : [email protected]
Format settings, CABAC : Yes
Format settings, ReFrames : 9 frames
Codec ID : V_MPEG4/ISO/AVC
Duration : 1h 56mn
Bit rate : 1 644 Kbps
Width : 1 280 pixels
Height : 536 pixels
Display aspect ratio : 2.40:1
Frame rate mode : Constant
Frame rate : 23.976 fps
Color space : YUV
Chroma subsampling : 4:2:0
Bit depth : 8 bits
Scan type : Progressive
Bits/(Pixel*Frame) : 0.100
Stream size : 1.34 GiB (71%)
Title : Gran Torino
Writing library : core 67 r1145 d2e1e1c
Encoding settings : cabac=1 / ref=9 / deblock=1:-2:0 / analyse=0x3:0x113 / me=umh / subme=9 / psy_rd=1.0:0.0 / mixed_ref=1 / me_range=32 / chroma_me=1 / trellis=2 / 8x8dct=1 / cqm=0 / deadzone=21,11 / chroma_qp_offset=-2 / threads=6 / nr=0 / decimate=1 / mbaff=0 / bframes=11 / b_pyramid=1 / b_adapt=2 / b_bias=0 / direct=1 / wpredb=1 / keyint=250 / keyint_min=25 / scenecut=45 / rc=crf / crf=21.5 / qcomp=0.60 / qpmin=10 / qpmax=51 / qpstep=4 / ip_ratio=1.40 / pb_ratio=1.30 / aq=1:1.00
Language : English
Default : Yes
Forced : No
Color range : Limited
Matrix coefficients : BT.709

Audio #1
ID : 2
Format : AC-3
Format/Info : Audio Coding 3
Mode extension : CM (complete main)
Format settings, Endianness : Big
Codec ID : A_AC3
Duration : 1h 56mn
Bit rate mode : Constant
Bit rate : 448 Kbps
Channel(s) : 6 channels
Channel positions : Front: L C R, Side: L R, LFE
Sampling rate : 48.0 KHz
Compression mode : Lossy
Stream size : 374 MiB (19%)
Title : 5.1 |Студія Омікрон на замовлення Hurtom.com|
Language : Ukrainian
Default : Yes
Forced : No

Audio #2
ID : 3
Format : AC-3
Format/Info : Audio Coding 3
Mode extension : CM (complete main)
Format settings, Endianness : Big
Codec ID : A_AC3
Duration : 1h 56mn
Bit rate mode : Constant
Bit rate : 192 Kbps
Channel(s) : 2 channels
Channel positions : Front: L R
Sampling rate : 48.0 KHz
Compression mode : Lossy
Stream size : 160 MiB (8%)
Title : 2.0 |ICTV|
Language : Ukrainian
Default : No
Forced : No

Menu
00:00:00.000 : en:Chapter 1
00:03:54.526 : en:Chapter 2
00:08:45.358 : en:Chapter 3
00:13:14.127 : en:Chapter 4
00:18:08.379 : en:Chapter 5
00:20:57.006 : en:Chapter 6
00:24:20.751 : en:Chapter 7
00:28:49.061 : en:Chapter 8
00:31:41.650 : en:Chapter 9
00:36:18.051 : en:Chapter 10
00:40:13.745 : en:Chapter 11
00:43:46.290 : en:Chapter 12
00:48:44.380 : en:Chapter 13
00:53:55.899 : en:Chapter 14
00:57:04.421 : en:Chapter 15
01:01:05.662 : en:Chapter 16
01:04:21.691 : en:Chapter 17
01:10:43.114 : en:Chapter 18
01:16:28.125 : en:Chapter 19
01:20:04.758 : en:Chapter 20
01:22:55.137 : en:Chapter 21
01:26:14.211 : en:Chapter 22
01:29:15.475 : en:Chapter 23
01:33:30.063 : en:Chapter 24
01:36:31.786 : en:Chapter 25
01:38:41.582 : en:Chapter 26
01:43:45.428 : en:Chapter 27
01:46:09.113 : en:Chapter 28
01:51:04.408 : en:Chapter 29
01:56:34.529 : en:Chapter 30
Джерело: &
Особиста оцінка: 9 - давно не бачив настільки якісне кіно
Висловлюю подяку п. sando7 і OlegCena за наданий сирий звук до Аудіо #2


 Трекер:    Зареєстрований   

Завантажити / скачати фільм українською



відео для новачків



 Зареєстрований:   2017-03-02 18:44
 Розмір:   1.9 GB 
 Оцінка фільму:   5.7/10 (Голосів: 26)
   
Anonymous 







2017-03-02 18:44  
Знаю, що звіт МедіаІнфо не обов'язковий, але додав.
tpolit 
Свій


З нами з: 10.01.15
Востаннє: 20.08.17
Повідомлень: 143

2017-03-02 19:59  
Класний фільм.
11FrYkT 
Модератор відео


З нами з: 20.02.11
Востаннє: 19.08.17
Повідомлень: 3807

2017-03-02 20:18  
Anonymous написано:
Знаю, що звіт МедіаІнфо не обов'язковий, але додав.

перестаньте писати одне і те ж в кожній темі

bot 
робот


З нами з: 30.09.07
Востаннє: 26.05.05
Повідомлень: 17368

2017-03-02 20:19  
Тему перенесено з Фільми до форуму Фільми в HD


11FrYkT

lozinska 
Свій


З нами з: 20.04.08
Востаннє: 19.08.17
Повідомлень: 60

2017-03-18 11:09  
Фільм неймовірний. Вкотре переконуюсь, що всьому свій час, і фільмам з книжками теж. Думаю, в 2008-му я б його навіть не додивилась... Зараз мені 37, і я отримала справжнє задоволення від цього кіно. Бувають такі фільми, коли дуже цікаво, інтрига, напружений сюжет, смішно, а буває саме отак - отримуєш просто якесь кінематографічне задоволення від усього, що відбувається на екрані, і не хочеш, щоб воно закінчувалось.
Окрема подяка студії озвучування, дуже вдало вийшло! Іствуду пошана.

Ваш часовий пояс: GMT + 2 Години

Нова тема   Відповісти