Справжній злочин / True Crime (1999) AVC

Нові коментарі

Нова тема   Відповісти
Автор Повідомлення
Anonymous 







2017-03-02 18:41  
Справжній злочин / True Crime (1999) AVC


Справжній злочин / True Crime (1999) AVC


Жанр: детектив, трилер, драма, кримінальний
Країна: США


Кінокомпанія: Warner Bros. Pictures
Режисер: Клінт Іствуд (Clint Eastwood)
Актори: Клінт Іствуд (Clint Eastwood), Ісайа Вашинґтон / Isaiah Washington, Джеймс Вудс (James Woods), Ліза Ґей Гамільтон / Lisa Gay Hamilton, Деніс Лірі / Denis Leary, Бернард Гілл / Bernard Hill, Франческа Фішер-Іствуд / Francesca Fisher-Eastwood (донька Клінта Іствуда) та інші

Сюжет:
Тертий життям репортер Стів Еверетт на перший погляд не викликає симпатій. Він - п'яниця, бабій, лихословить, не дуже турботливий батько. Однак, коли Стів розуміє, що молодий хлопець, якого повинні стратити через 12 годин, не винен, він не роздумуючи йде на ризик, щоб запобігти справжньому злочину.


Тривалість: 2:07:39
Якість:
Відео:
кодек:
розмір кадру: 800х450
бітрейт: 1251 кб/с
Рейтинг MPAA: R - особам до 17 років обов'язкова присутність батьків або дорослого опікуна
Вікова категорія: 16+
Аудіо:
мова: українська
переклад: багатоголосий закадровий
ролі озвучили: Клінт Іствуд - Владислав Пупков, Джеймс Вудс - Олег Лепенець, Деніс Лірі - Олесь Гімбаржевський
кодек: 2.0
бітрейт: 192 кб/с
Збережено ориґінальні розділи, як на Blu-Ray

Скріншоти













Info
General
Unique ID : 253958403397070536110380275750893931297 (0xBF0E9BFFE071B5DD8A5DABB072B24B21)
Complete name : D:\True Crime (1999) AVC.
Format :
Format version : Version 4 / Version 2
File size : 1.29 GiB
Duration : 2h 7mn
Overall bit rate : 1 444 Kbps
Encoded date : UTC 2017-02-27 21:28:19
Writing application : mkvmerge v9.3.1 ('Mask Machine') 64bit
Writing library : libebml v1.3.4 + libmatroska v1.4.5
DURATION : 02:07:24.637000000
NUMBER_OF_FRAMES : 183288
NUMBER_OF_BYTES : 1195127573
_STATISTICS_WRITING_APP : mkvmerge v9.3.1 ('Mask Machine') 64bit
_STATISTICS_WRITING_DATE_UTC : 2017-02-27 21:28:19
_STATISTICS_TAGS : BPS DURATION NUMBER_OF_FRAMES NUMBER_OF_BYTES

Video
ID : 1
Format : AVC
Format/Info : Advanced Video Codec
Format profile : [email protected]
Format settings, CABAC : Yes
Format settings, ReFrames : 16 frames
Codec ID : V_MPEG4/ISO/AVC
Duration : 2h 7mn
Bit rate : 1 251 Kbps
Width : 800 pixels
Height : 450 pixels
Display aspect ratio : 16:9
Frame rate mode : Constant
Frame rate : 23.976 fps
Color space : YUV
Chroma subsampling : 4:2:0
Bit depth : 8 bits
Scan type : Progressive
Bits/(Pixel*Frame) : 0.145
Stream size : 1.09 GiB (85%)
Writing library : core 148 r2638 7599210
Encoding settings : cabac=1 / ref=16 / deblock=1:0:0 / analyse=0x3:0x133 / me=umh / subme=10 / psy=1 / psy_rd=1.00:0.00 / mixed_ref=1 / me_range=24 / chroma_me=1 / trellis=2 / 8x8dct=1 / cqm=0 / deadzone=21,11 / fast_pskip=1 / chroma_qp_offset=-2 / threads=6 / lookahead_threads=1 / sliced_threads=0 / nr=0 / decimate=1 / interlaced=0 / bluray_compat=0 / constrained_intra=0 / bframes=12 / b_pyramid=2 / b_adapt=2 / b_bias=0 / direct=3 / weightb=1 / open_gop=0 / weightp=2 / keyint=240 / keyint_min=23 / scenecut=40 / intra_refresh=0 / rc_lookahead=60 / rc=2pass / mbtree=0 / bitrate=1251 / ratetol=1.0 / qcomp=0.60 / qpmin=0 / qpmax=69 / qpstep=4 / cplxblur=20.0 / qblur=0.5 / vbv_maxrate=62500 / vbv_bufsize=78125 / nal_hrd=none / filler=0 / ip_ratio=1.40 / pb_ratio=1.30 / aq=1:1.00
Language : English
Default : Yes
Forced : No

Audio
ID : 2
Format : AC-3
Format/Info : Audio Coding 3
Mode extension : CM (complete main)
Format settings, Endianness : Big
Codec ID : A_AC3
Duration : 2h 7mn
Bit rate mode : Constant
Bit rate : 192 Kbps
Channel(s) : 2 channels
Channel positions : Front: L R
Sampling rate : 48.0 KHz
Compression mode : Lossy
Stream size : 175 MiB (13%)
Language : Ukrainian
Default : Yes
Forced : No

Menu #1
00:00:00.000 : en:00:00:00.000
00:01:28.255 : en:00:01:28.255
00:04:08.457 : en:00:04:08.457
00:05:31.873 : en:00:05:31.873
00:09:59.140 : en:00:09:59.140
00:13:11.165 : en:00:13:11.165
00:17:02.730 : en:00:17:02.730
00:18:19.807 : en:00:18:19.807
00:23:57.811 : en:00:23:57.811
00:29:23.637 : en:00:29:23.637
00:32:47.048 : en:00:32:47.048
00:35:07.314 : en:00:35:07.314
00:38:54.874 : en:00:38:54.874
00:41:43.710 : en:00:41:43.710
00:48:16.102 : en:00:48:16.102
00:52:35.027 : en:00:52:35.027
00:53:58.277 : en:00:53:58.277
00:57:04.171 : en:00:57:04.171
01:00:12.818 : en:01:00:12.818
01:02:20.946 : en:01:02:20.946
01:05:26.798 : en:01:05:26.798
01:10:33.604 : en:01:10:33.604
01:15:29.608 : en:01:15:29.608
01:17:08.374 : en:01:17:08.374
01:19:51.996 : en:01:19:51.996
01:22:23.313 : en:01:22:23.313
01:25:53.899 : en:01:25:53.899
01:29:47.424 : en:01:29:47.424
01:32:08.898 : en:01:32:08.898
01:36:17.647 : en:01:36:17.647
01:43:28.911 : en:01:43:28.911
01:44:39.982 : en:01:44:39.982
01:47:56.345 : en:01:47:56.345
01:50:07.643 : en:01:50:07.643
01:52:47.678 : en:01:52:47.678
01:54:57.599 : en:01:54:57.599
01:58:40.989 : en:01:58:40.989
02:00:16.960 : en:02:00:16.960
02:02:05.401 : en:02:02:05.401

Menu #2
00:00:00.054 : en:00:00:00.054 / en:00:00:00.054 / en:00:00:00.054
Джерело: &
Особиста оцінка: 7 - моїй собаці не сподобалось
Подяка за укр.звук п.dbdeveloper'у, за укр.постер - п.Shkval


Срібний реліз (на рейтинг впливає 50% завантаженого)
 Трекер:    Зареєстрований   

Завантажити / скачати фільм українською



відео для новачків



 Зареєстрований:   2017-03-02 18:41
 Розмір:   1.29 GB 
 Оцінка фільму:   3.4/10 (Голосів: 15)
   
Інші релізи
   Справжній злочин / True Crime (1999) 720p Ukr/Eng | Sub Eng igor911  2 / 0   9.09 GB   2017-02-21 19:32 
   Справжній злочин / True Crime (1999) Ukr/Eng Arsenfpu  11 / 0   2.18 GB   2017-01-27 09:07 
   Справжній злочин / True Crime (1999) 1080p Ukr/Eng | Sub Eng staf777  2 / 0   19.01 GB   2016-12-21 18:14 
Anonymous 







2017-03-02 18:42  
Знаю, що звіт МедіаІнфо не обов'язковий, але додав.
igor911 
Відео Гуртом
Відео Гуртом


З нами з: 18.01.08
Востаннє: 27.07.17
Повідомлень: 7147

2017-03-02 20:57  
Anonymous написано:
Подяка за укр.постер - п.Shkval'у
і де він?
Tarasyk 
Відео Гуртом - фільмокрай
Відео Гуртом - фільмокрай


З нами з: 26.08.09
Востаннє: 27.07.17
Повідомлень: 6347

2017-03-02 21:53  
Вкажіть, будь ласка, з якого ТБ-каналу звук, і студію - якщо відома.
Anonymous 







2017-03-02 22:41  
Tarasyk
Не відомо.
igor911
Виправив

xanderovich 
Новенький


З нами з: 19.10.15
Востаннє: 30.06.17
Повідомлень: 5

2017-03-21 00:36  
Гарне кіно.
merlinker 
Частий відвідувач


З нами з: 03.04.11
Востаннє: 27.07.17
Повідомлень: 32

2017-03-27 10:07  
вартує дивитися, хоча б раз
Ваш часовий пояс: GMT + 2 Години

Нова тема   Відповісти