Доктор Стрендж / Doctor Strange (2016) 1080p 3D [Half OverUnder, IMAX Edition] Ukr/Eng | Sub Eng

Нові коментарі

Нова тема   Відповісти
Автор Повідомлення
Anonymous 







2017-03-02 13:27  
Доктор Стрендж / Doctor Strange (2016) 1080p 3D [Half OverUnder, IMAX Edition] Ukr/Eng | Sub Eng


«Кинь виклик реальності»
Альтернативні українські постери








Жанр: фантастика, фентезі, бойовик, пригодницький
Країна: США



Кінокомпанія: Marvel Studios, Walt Disney Studios Motion Pictures
Режисер: Скот Деріксон / Scott Derrickson
Актори: Бенедикт Камбербетч / Benedict Cumberbatch, Чіветел Еджіофор / Chiwetel Ejiofor, Тільда Свінтон / Tilda Swinton, Мадс Міккельсен / Mads Mikkelsen, Рейчел МакАдамс / Rachel McAdams, Майкл Сталберг / Michael Stuhlbarg, Бенедикт Вонґ / Benedict Wong, Бенджамін Бретт / Benjamin Bratt, Скотт Едкінс / Scott Adkins, Емі Ландекер / Amy Landecker та інші

Сюжет:
Стефан Стрендж був майстерним хірургом, занадто закоханим в свою роботу і нескінченно впевненим в собі. Страшна автокатастрофа позбавила руки доктора колишньої чутливості. Втративши сенс життя, герой вирушив на пошуки засобу зцілення тіла й душі в один з монастирів Азії. Через багато років Стефан став одним з наймогутніших магів Землі. На його плечі ліг важкий тягар захисту людей від зла...
Офіційний український трейлер:


Рейтинг MPAA: PG-13 - дітям до 13 років перегляд не бажаний
Вікова категорія: 12+

Тривалість: 01:55:04
Якість: 1080p 3D [Ash61]
Відео:
кодек:
розмір кадру: 1920 х 1080
бітрейт: 7126 кб/с [crf=16]
формат 3D: Half OverUnder / Вертикальна анаморфна стереопара
порядок ракурсів: лівий ракурс перший
Відео для перегляду на 3D обладнанні!

Аудіо # 1:
мова: українська
переклад: професійний дубльований
кодек: 5.1
бітрейт: 1536 кб/с

Аудіо # 2:
мова: українська
переклад: професійний дубльований
кодек: 5.1
бітрейт: 640 кб/с

Аудіо # 3:
мова: англійська
переклад: оригінал
кодек: 5.1
бітрейт: 640 кб/с

Субтитри # 1:
мова: українська (форсовані)
тип: програмні (м'які)
формат: srt

Субтитри # 2-3:
мова: англійська (повні, SDH)
тип: програмні (м'які)
формат: srt

Збережено оригінальні розділи, як на Blu-ray
Info, log та графік бітрейту
Код:
Format                      :
Format version              : Version 4 / Version 2
File size                   : 7.97 GiB
Duration                    : 1 h 55 min
Overall bit rate            : 9 916 kb/s

Video
ID                          : 1
Format                      : AVC
Format/Info                 : Advanced Video Codec
Format profile              : [email protected]
Format settings, CABAC      : Yes
Format settings, ReFrames   : 4 frames
Codec ID                    : V_MPEG4/ISO/AVC
Duration                    : 1 h 55 min
Bit rate                    : 7 126 kb/s
Width                       : 1 920 pixels
Height                      : 1 080 pixels
Display aspect ratio        : 16:9
Frame rate mode             : Constant
Frame rate                  : 23.976 (24000/1001) FPS
Color space                 : YUV
Chroma subsampling          : 4:2:0
Bit depth                   : 8 bits
Scan type                   : Progressive
Bits/(Pixel*Frame)          : 0.143
Stream size                 : 5.73 GiB (72%)
Title                       : Доктор Стрендж / Doctor Strange (2016) 1080p 3D [Half OverUnder] by Ash61
Writing library             : core 146 r2538 121396c
Encoding settings           : cabac=1 / ref=4 / deblock=1:-3:-3 / analyse=0x3:0x113 / me=umh / subme=10 / psy=1 / psy_rd=1.00:0.00 / mixed_ref=1 / me_range=32 / chroma_me=1 / trellis=2 / 8x8dct=1 / cqm=0 / deadzone=21,11 / fast_pskip=1 / chroma_qp_offset=-2 / threads=12 / lookahead_threads=3 / sliced_threads=0 / nr=0 / decimate=1 / interlaced=0 / bluray_compat=0 / constrained_intra=0 / bframes=10 / b_pyramid=2 / b_adapt=2 / b_bias=0 / direct=3 / weightb=1 / open_gop=0 / weightp=2 / keyint=250 / keyint_min=23 / scenecut=40 / intra_refresh=0 / rc_lookahead=60 / rc=crf / mbtree=1 / crf=16.0 / qcomp=0.70 / qpmin=0 / qpmax=69 / qpstep=4 / vbv_maxrate=40000 / vbv_bufsize=30000 / crf_max=0.0 / nal_hrd=none / filler=0 / frame-packing=4 / ip_ratio=1.40 / aq=1:0.70
Language                    : English
Default                     : Yes
Forced                      : No

Audio #1
ID                          : 2
Format                      :
Format/Info                 : Digital Theater Systems
Mode                        : 16
Format settings, Endianness : Big
Codec ID                    : A_DTS
Duration                    : 1 h 54 min
Bit rate mode               : Constant
Bit rate                    : 1 509 kb/s
Channel(s)                  : 6 channels
Channel positions           : Front: L C R, Side: L R, LFE
Sampling rate               : 48.0 kHz
Frame rate                  : 93.750 FPS (512 spf)
Bit depth                   : 24 bits
Compression mode            : Lossy
Stream size                 : 1.21 GiB (15%)
Title                       : Dub, 5.1 1509 Kbps [Hurtom]
Language                    : Ukrainian
Default                     : Yes
Forced                      : No

Audio #2
ID                          : 3
Format                      : AC-3
Format/Info                 : Audio Coding 3
Mode extension              : CM (complete main)
Format settings, Endianness : Big
Codec ID                    : A_AC3
Duration                    : 1 h 54 min
Bit rate mode               : Constant
Bit rate                    : 640 kb/s
Channel(s)                  : 6 channels
Channel positions           : Front: L C R, Side: L R, LFE
Sampling rate               : 48.0 kHz
Frame rate                  : 31.250 FPS (1536 spf)
Bit depth                   : 16 bits
Compression mode            : Lossy
Stream size                 : 526 MiB (6%)
Title                       : Dub, 5.1 640 Kbps [Hurtom]
Language                    : Ukrainian
Default                     : No
Forced                      : No

Audio #3
ID                          : 4
Format                      : AC-3
Format/Info                 : Audio Coding 3
Mode extension              : CM (complete main)
Format settings, Endianness : Big
Codec ID                    : A_AC3
Duration                    : 1 h 54 min
Bit rate mode               : Constant
Bit rate                    : 640 kb/s
Channel(s)                  : 6 channels
Channel positions           : Front: L C R, Side: L R, LFE
Sampling rate               : 48.0 kHz
Frame rate                  : 31.250 FPS (1536 spf)
Bit depth                   : 16 bits
Compression mode            : Lossy
Stream size                 : 526 MiB (6%)
Title                       : Original, 5.1 640 Kbps
Language                    : English
Default                     : No
Forced                      : No

Text #1
ID                          : 5
Format                      : UTF-8
Codec ID                    : S_TEXT/UTF8
Codec ID/Info               : UTF-8 Plain Text
Duration                    : 1 h 35 min
Bit rate                    : 0 b/s
Count of elements           : 7
Stream size                 : 338 Bytes (0%)
Title                       : Ukr forced
Language                    : Ukrainian
Default                     : Yes
Forced                      : Yes

Text #2
ID                          : 6
Format                      : UTF-8
Codec ID                    : S_TEXT/UTF8
Codec ID/Info               : UTF-8 Plain Text
Duration                    : 1 h 52 min
Bit rate                    : 43 b/s
Count of elements           : 1319
Stream size                 : 36.1 KiB (0%)
Title                       : Eng full
Language                    : English
Default                     : No
Forced                      : No

Text #3
ID                          : 7
Format                      : UTF-8
Codec ID                    : S_TEXT/UTF8
Codec ID/Info               : UTF-8 Plain Text
Duration                    : 1 h 54 min
Bit rate                    : 49 b/s
Count of elements           : 1584
Stream size                 : 41.3 KiB (0%)
Title                       : Eng SDH
Language                    : English
Default                     : No
Forced                      : No

Menu
00:00:00.000                : :1
00:04:34.564                : :2
00:10:16.823                : :3
00:18:32.152                : :4
00:24:37.017                : :5
00:31:40.480                : :6
00:38:33.811                : :7
00:43:16.135                : :8
00:48:24.525                : :9
00:55:34.496                : :10
01:05:04.358                : :11
01:12:38.436                : :12
01:22:14.345                : :13
01:28:28.636                : :14
01:35:00.903                : :15
01:45:06.507                : :16





Джерело: &

ЗАЛИШАЙТЕСЬ ЯКОМОГА ДОВШЕ НА РОЗДАЧІ

ЗАВАНТАЖИВ САМ - ДАЙ ЗАВАНТАЖИТИ ІНШИМ!


 Трекер:    Зареєстрований   

Завантажити / скачати фільм українською



відео для новачків



 Зареєстрований:   2017-03-02 14:12
 Розмір:   7.97 GB 
 Оцінка фільму:   5.9/10 (Голосів: 27)
   
Інші релізи
His_Infernal_Majesty 
Новенький


З нами з: 01.12.14
Востаннє: 21.10.17
Повідомлень: 23

2017-03-06 09:45  
якісна фантастика! Раджу до перегляду, особливо в 3D!
XAPOH 
Новенький


З нами з: 27.04.10
Востаннє: 03.10.17
Повідомлень: 9

2017-03-18 18:56  
Люди добрі. Що означає :" Помилка: отказано в доступе (WriteToDisk)? Де блокується торрент?
Anonymous 







2017-03-18 19:48  
XAPOH, помилка на твоїй стороні. Можливо, ти намагаєшся зберегти файл релізу на диск з файловою системою FAT32, яка має обмеження на розмір до 4 Гб.
XAPOH 
Новенький


З нами з: 27.04.10
Востаннє: 03.10.17
Повідомлень: 9

2017-03-19 08:56  
В мене NTFS.
Далі було цікавіше. В рідну папку "відео" не дало завантажити, а в "завантажені" спокійно пішло? Я вже ніц не розумію.

Anonymous 







2017-03-19 11:49  
XAPOH, значить хтось щось мутив з правами доступу до папки Відео.
skaypenet 
Новенький


З нами з: 31.07.12
Востаннє: 20.10.17
Повідомлень: 12

2017-06-17 14:30  
підкажіть якісь девайси на яких це можна дивитись
?
це на програвачі blu rey?

Anonymous 







2017-06-17 15:01  
skaypenet, найпростіше - телек з підтримкою 3D, з підтримкою форматів начебто найкраще справи [були] в LG та Samsung. Окремого програвача для ріпів не потрібно, відтворювати можна вбудованим програвачем телека з USB, по HDMI 1.3 або (можливо) по DLNA.
Ваш часовий пояс: GMT + 2 Години

Нова тема   Відповісти