Клітка / The Cell (2000) 1080p 2хUkr/Eng | Sub Eng

Нові коментарі

Нова тема   Відповісти
Автор Повідомлення
staf777 
Відео Гуртом - підтримка та поширення
Відео Гуртом - підтримка та поширення


З нами з: 16.11.16
Востаннє: 29.09.20
Повідомлень: 4073

2017-03-01 17:39  
Клітка / The Cell (2000) 1080p 2хUkr/Eng | Sub Eng

Альтернативний постер та оригінальна обкладинка



Клітка / The Cell (2000) 1080p 2хUkr/Eng | Sub Eng
Жанр: кримінал, драма, фентезі, трилер, детектив
Країна: США



Кінокомпанія: New Line Cinema
Режисер: Тарсем Сінґг (Tarsem Singh)
Актори: Дженніфер Лопез (Jennifer Lopez), Колтон Джеймс (Colton James), Ділан Бакер (Dylan Baker), Ґеррі Беккер (Gerry Becker), Масетта Вандер (Musetta Vander) та інші

Сюжет:
Психіатр Кетрін Дін - єдина, хто може врятувати молоду дівчину, викрадену серійним маніяком Карлом Старгером. На його рахунку вже майже десяток жертв, а жертвами, як правило, стають молоді привабливі дівчата, яких маніяк нелюдськи катує, перш ніж позбавити життя. Останню викрадену ним дівчину досі так і не знайшли, але є надія, що її ще можна врятувати. Для цього Кетрін доведеться зазирнути у мозок психопата і з'ясувати, де ж знаходиться нещасна жертва і що їй загрожує. Кетрін занурюється у дивний, незрозумілий світ маніяка, який не має нічого спільного із реальним життям. Але у цьому світі, створеному уявою збоченця всі закони виконуються лише для свого господаря. У цей світ легко потрапити, але вибратися звідти майже неможливо. Тепер небезпека загрожує психологу…


Тривалість: 01:47:10
Якість: 1080p
Відео:
кодек:
розмір кадру: 1916x800
бітрейт: 9763 кб/с

Аудіо # 1:
мова: українська
переклад: багатоголосий закадровий
кодек: 2.0
бітрейт: 192 кб/с

Аудіо # 2:
мова: українська
переклад: багатоголосий закадровий
кодек: 2.0
бітрейт: 192 кб/с

Аудіо # 3:
мова: англійська
переклад: оригінал
кодек: 5.1
бітрейт: 1509 кб/с

Субтитри:
мова: англійська
тип: програмні (м'які)
формат: *.srt
Info
General
Unique ID : 200646178938072221840779318556083181171 (0x96F30C658A22FAF9AFB022034E755673)
Complete name : H:\» HD українською » Фільми в HD\Жахи\The Cell (2000) [Ukr,Eng sub.Eng] 1080p [Hurtom].
Format :
Format version : Version 4 / Version 2
File size : 8.73 GiB
Duration : 1 h 47 min
Overall bit rate : 11.7 Mb/s
Movie name : The Cell (2000) [Ukr,Eng sub.Eng] 1080p [Hurtom]
Encoded date : UTC 2017-03-02 06:19:42
Writing application : v9.8.0 ('Kuglblids') 64bit
Writing library : libebml v1.3.4 + v1.4.5
Cover : Yes
Attachments : xlog.txt / cover.jpg

Video
ID : 1
Format : AVC
Format/Info : Advanced Video Codec
Format profile : [email protected]
Format settings, CABAC : Yes
Format settings, ReFrames : 5 frames
Codec ID : V_MPEG4/ISO/AVC
Duration : 1 h 47 min
Bit rate : 9 763 kb/s
Width : 1 916 pixels
Height : 800 pixels
Display aspect ratio : 2.40:1
Frame rate mode : Constant
Frame rate : 23.976 (24000/1001) FPS
Color space : YUV
Chroma subsampling : 4:2:0
Bit depth : 8 bits
Scan type : Progressive
Bits/(Pixel*Frame) : 0.266
Stream size : 7.31 GiB (84%)
Title : Release for HDCLUB
Writing library : core 148 r2744kMod b97ae06
Encoding settings : cabac=1 / ref=5 / deblock=1:-2:-2 / analyse=0x3:0x133 / me=umh / subme=11 / psy=1 / fade_compensate=0.00 / psy_rd=1.00:0.00 / mixed_ref=1 / me_range=32 / chroma_me=1 / trellis=2 / 8x8dct=1 / cqm=0 / deadzone=21,11 / fast_pskip=1 / chroma_qp_offset=-2 / threads=12 / lookahead_threads=3 / sliced_threads=0 / nr=0 / decimate=1 / interlaced=0 / bluray_compat=0 / constrained_intra=0 / bframes=10 / b_pyramid=2 / b_adapt=2 / b_bias=0 / direct=1 / weightb=1 / open_gop=0 / weightp=2 / keyint=250 / keyint_min=23 / scenecut=40 / intra_refresh=0 / rc_lookahead=60 / rc=crf / mbtree=0 / crf=17.2500 / qcomp=0.60 / qpmin=0 / qpmax=69 / qpstep=4 / vbv_maxrate=62500 / vbv_bufsize=78125 / crf_max=0.0 / nal_hrd=none / filler=0 / ip_ratio=1.40 / pb_ratio=1.30 / aq=1:0.80
Language : English
Default : Yes
Forced : No
Color range : Limited
Color primaries : BT.709
Transfer characteristics : BT.709
Matrix coefficients : BT.709

Audio #1
ID : 2
Format : AC-3
Format/Info : Audio Coding 3
Mode extension : CM (complete main)
Format settings, Endianness : Big
Codec ID : A_AC3
Duration : 1 h 47 min
Bit rate mode : Constant
Bit rate : 192 kb/s
Channel(s) : 2 channels
Channel positions : Front: L R
Sampling rate : 48.0 kHz
Frame rate : 31.250 FPS (1536 spf)
Bit depth : 16 bits
Compression mode : Lossy
Stream size : 147 MiB (2%)
Title : UA-MVO, ІНТЕР
Language : Ukrainian
Default : Yes
Forced : Yes

Audio #2
ID : 3
Format : AC-3
Format/Info : Audio Coding 3
Mode extension : CM (complete main)
Format settings, Endianness : Big
Codec ID : A_AC3
Duration : 1 h 47 min
Bit rate mode : Constant
Bit rate : 192 kb/s
Channel(s) : 2 channels
Channel positions : Front: L R
Sampling rate : 48.0 kHz
Frame rate : 31.250 FPS (1536 spf)
Bit depth : 16 bits
Compression mode : Lossy
Stream size : 147 MiB (2%)
Title : [UA-MVO], ICTV
Language : Ukrainian
Default : No
Forced : No

Audio #3
ID : 4
Format :
Format/Info : Digital Theater Systems
Mode : 16
Format settings, Endianness : Big
Codec ID : A_DTS
Duration : 1 h 47 min
Bit rate mode : Constant
Bit rate : 1 509 kb/s
Channel(s) : 6 channels
Channel positions : Front: L C R, Side: L R, LFE
Sampling rate : 48.0 kHz
Frame rate : 93.750 FPS (512 spf)
Bit depth : 24 bits
Compression mode : Lossy
Stream size : 1.13 GiB (13%)
Language : English
Default : No
Forced : No

Text
ID : 5
Format : UTF-8
Codec ID : S_TEXT/UTF8
Codec ID/Info : UTF-8 Plain Text
Duration : 1 h 38 min
Bit rate : 34 b/s
Count of elements : 871
Stream size : 25.1 KiB (0%)
Language : English
Default : No
Forced : No
Скріншоти



Подяка:
Пані olgaya та пану MAKAPOHHIK за доріжку №1,
Пану karvai0 та пану robotron005 за доріжку №2.
Панам 1SPY та Тирік'у за українізовані постери.


Джерело: &
Особиста оцінка: 8 - мені сподобалося
Клітка / The Cell (2000) 1080p 2хUkr/Eng | Sub Eng


Клітка / The Cell (2000) 1080p 2хUkr/Eng | Sub Eng


Срібний реліз (на рейтинг впливає 50% завантаженого)
 Трекер:    Зареєстрований   

Завантажити / скачати фільм українською



відео для новачків



 Зареєстрований:   2017-03-02 10:13
 Розмір:   8.73 GB 
 Оцінка фільму:   8.6/10 (Голосів: 9)
   
Інші релізи
   Клітка / The Cell (2000) Remux 1080p 2хUkr/Eng | Sub Eng sandman  0 / 0   14.52 GB   2020-07-09 21:05 
   Клітка / The Cell (2000) AVC 2хUkr/Eng | Sub Eng staf777  7 / 0   2.06 GB   2018-12-10 18:54 
   Клітка / The Cell (2000) 2хUkr/Eng | Sub Eng robotron005  2 / 0   2.19 GB   2013-10-02 18:21 
   Клітка / The Cell (2000) 720p Ukr/Eng | Sub Eng Virake  4 / 0   4.71 GB   2013-02-20 22:50 
AtikiN-DN 
Новенький


З нами з: 08.08.14
Востаннє: 28.09.20
Повідомлень: 17

2017-05-11 19:12  
Хтось, станьте на роздачу - я не можу завантажити!
[email protected] 
VIP


З нами з: 25.03.17
Востаннє: 27.09.20
Повідомлень: 552

2019-07-02 00:46  
Фільм тримає в напрузі, мені сподобався
hetzendorf 
Попереджень: 2
Попереджень: 2 


З нами з: 23.07.15
Востаннє: 29.09.20
Повідомлень: 2876

2020-07-18 00:52  
Цитата:
Актори: … та інші

От даремно Вінса Вона залишили в «інших»

Вельми якісний трилер і знятий дуже красиво, за стилістикою дещо нагадує мій улюблений «Твін Пікс». І напевно невипадково одного фебеерного начальника прізвище Коул ^__^
Відкладаю до колекції
9/10

Ваш часовий пояс: GMT + 2 Години

Нова тема   Відповісти