Темний Лицар / The Dark Knight (2008) Remux 1080p [IMAX Edition] Ukr/Eng | Sub Ukr/Eng

Нові коментарі

Нова тема   Відповісти
Автор Повідомлення
Argentum 
Свій


З нами з: 25.09.11
Востаннє: 17.08.17
Повідомлень: 63

2017-02-28 23:08  
Темний Лицар / The Dark Knight (2008) Remux 1080p [IMAX Edition] Ukr/Eng | Sub Ukr/Eng

Темний Лицар / The Dark Knight (2008) Remux 1080p [IMAX Edition] Ukr/Eng | Sub Ukr/Eng


Жанр: бойовик, кримінальний, пригодницький, трилер, драма
Країна: США



Кінокомпанія: Warner Bros. Pictures, Legendary Pictures, Syncopy
Режисер: Крістофер Нолан (Christopher Nolan)
Актори: Крістіан Бейл (Christian Bale), Гіт Леджер (Heath Ledger), Аарон Екгарт (Aaron Eckhart), Меґі Джилленгаал (Maggie Gyllenhaal), Ґарі Олдмен (Gary Oldman), Морґан Фрімен (Morgan Freeman), Майкл Кейн (Michael Caine), Кілліан Мерфі (Cillian Murphy), Ерік Робертс (Eric Roberts)

Сюжет:
Бетмен піднімає ставки у війні з криміналом. За допомогою лейтенанта Джеймса Гордона і прокурора Гарві Дента, він має намір очистити вулиці від злочинності, що отруює місто. Співпраця виявляється ефективною, але скоро вони виявлять себе посеред хаосу, розв'язаного новим кримінальним генієм, відомим переляканим мешканцям міста під ім'ям Джокер.


Тривалість: 02:32:13
Якість: Remux
Відео:
кодек: VC-1
розмір кадру: 1920 х 1080
бітрейт: ~24000 кб/с

Аудіо # 1:
мова: українська
переклад: професійний дубльований
кодек: 5.1
бітрейт: 448 кб/с

Аудіо # 2:
мова: англійська
переклад: оригінал
кодек: -HD 5.1
бітрейт: ~1505 кб/с

Аудіо # 3:
мова: англійська
переклад: оригінал
кодек: 5.1
бітрейт: 640 кб/с

Джерело озвучення:


Субтитри:
мова: українська
тип: пререндерні
формат: *.pgs

Субтитри:
мова: англійська
тип: пререндерні
формат: *.pgs
Info
General
Unique ID : 227657895902099443364182366125895858214 (0xAB4550DD790006C7A2BCEE2F2D263826)
Complete name : /home/jacks/Videos/My/Batman/The Dark Knight (2008) [Ukr, Eng] Remux 1080p [Hurtom].
Format :
Format version : Version 4 / Version 2
File size : 28.4 GiB
Duration : 2 h 32 min
Overall bit rate mode : Variable
Overall bit rate : 26.7 Mb/s
Movie name : The Dark Knight (2008) - Release for HURTOM.COM
Encoded date : UTC 2017-02-28 11:25:46
Writing application : mkvmerge v9.9.0 ('Pick Up') 64bit
Writing library : libebml v1.3.4 + libmatroska v1.4.5
Attachments : temnii-litsar.jpg

Video
ID : 1
Format : VC-1
Format profile : Advanced@L3
Codec ID : V_MS/VFW/FOURCC / WVC1
Codec ID/Hint : Microsoft
Duration : 2 h 32 min
Bit rate : 24.0 Mb/s
Width : 1 920 pixels
Height : 1 080 pixels
Display aspect ratio : 16:9
Frame rate mode : Constant
Frame rate : 23.976 (24000/1001) FPS
Color space : YUV
Chroma subsampling : 4:2:0
Bit depth : 8 bits
Scan type : Progressive
Compression mode : Lossy
Bits/(Pixel*Frame) : 0.483
Stream size : 25.5 GiB (90%)
Default : Yes
Forced : No

Audio #1
ID : 2
Format : AC-3
Format/Info : Audio Coding 3
Format settings, Endianness : Big
Codec ID : A_AC3
Duration : 2 h 32 min
Bit rate mode : Constant
Bit rate : 448 kb/s
Channel(s) : 6 channels
Channel positions : Front: L C R, Side: L R, LFE
Sampling rate : 48.0 kHz
Frame rate : 31.250 FPS (1536 spf)
Bit depth : 16 bits
Compression mode : Lossy
Delay relative to video : 42 ms
Stream size : 488 MiB (2%)
Title : AC-3, 448 kb/s
Language : Ukrainian
Service kind : Complete Main
Default : Yes
Forced : No

Audio #2
ID : 3
Format : TrueHD
Codec ID : A_TRUEHD
Duration : 2 h 32 min
Bit rate mode : Variable
Bit rate : 1 505 kb/s
Maximum bit rate : 3 267 kb/s
Channel(s) : 6 channels
Channel positions : Front: L C R, Side: L R, LFE
Sampling rate : 48.0 kHz
Frame rate : 1 200.000 FPS (40 spf)
Compression mode : Lossless
Delay relative to video : 42 ms
Stream size : 1.60 GiB (6%)
Title : TrueHD, 1 505 kb/s
Language : English
Default : No
Forced : No

Audio #3
ID : 4
Format : AC-3
Format/Info : Audio Coding 3
Format settings, Endianness : Big
Codec ID : A_AC3
Duration : 2 h 32 min
Bit rate mode : Constant
Bit rate : 640 kb/s
Channel(s) : 6 channels
Channel positions : Front: L C R, Side: L R, LFE
Sampling rate : 48.0 kHz
Frame rate : 31.250 FPS (1536 spf)
Bit depth : 16 bits
Compression mode : Lossy
Delay relative to video : 42 ms
Stream size : 697 MiB (2%)
Title : AC-3, 640 kb/s
Language : English
Service kind : Complete Main
Default : No
Forced : No

Text #1
ID : 5
Format : PGS
Codec ID : S_HDMV/PGS
Codec ID/Info : Picture based subtitle format used on BDs/HD-DVDs
Duration : 2 h 30 min
Bit rate : 29.0 kb/s
Count of elements : 3786
Stream size : 31.2 MiB (0%)
Language : Ukrainian
Default : No
Forced : No

Text #2
ID : 6
Format : PGS
Codec ID : S_HDMV/PGS
Codec ID/Info : Picture based subtitle format used on BDs/HD-DVDs
Duration : 2 h 30 min
Bit rate : 36.1 kb/s
Count of elements : 4020
Stream size : 38.9 MiB (0%)
Language : English
Default : No
Forced : No
Скріншоти




Джерело: &
Особиста оцінка: 10 - без зайвих вагань рекомендую всім!


Золотий реліз (завантажене не впливає на рейтинг)
 Трекер:    Зареєстрований   

Завантажити / скачати фільм українською



відео для новачків



 Зареєстрований:   2017-03-05 21:48
 Розмір:   28.42 GB 
 Оцінка фільму:   8.9/10 (Голосів: 9)
   
Інші релізи
Sexy_Beast 
Новенький


З нами з: 18.02.17
Востаннє: 16.08.17
Повідомлень: 15

2017-03-01 14:02  
Ця частина сама крута з трилогії Нолана!!! Треба переглянути..
Тут є вставки з IMAX камер?

Argentum 
Свій


З нами з: 25.09.11
Востаннє: 17.08.17
Повідомлень: 63

2017-03-01 16:03  
Sexy_Beast
Цитата:
Ця частина сама крута з трилогії Нолана!!! Треба переглянути..

На мою думку вся трилогія найкраще зі знятого про Бетмена. Мені особисто найбільше подобається The Dark Knight Rises
Цитата:
Тут є вставки з IMAX камер?

Так є.

Patriot_ukr 
VIP


З нами з: 06.04.15
Востаннє: 16.08.17
Повідомлень: 1757

2017-03-01 18:40  
Argentum
Додайте до назви тоді "[IMAX Edition]"

ifridus85 
Новенький


З нами з: 10.02.17
Востаннє: 16.08.17
Повідомлень: 7

2017-03-01 22:09  
Дякую!!!
Argentum 
Свій


З нами з: 25.09.11
Востаннє: 17.08.17
Повідомлень: 63

2017-03-05 20:41  
!!! - Торрент оновлено! Прохання при необхідності перезавантажити торрент. Перепрошую за незручності - !!!
igor911 
Відео Гуртом
Відео Гуртом


З нами з: 18.01.08
Востаннє: 16.08.17
Повідомлень: 7265

2017-03-05 21:24  
Argentum написано:
me=hex / subme=7 / me_range=16 / fast_pskip=1 / bframes=3 / rc=crf / vbv_maxrate=25000 / vbv_bufsize=31250
дуже дивний ремукс, чомусь схожий на якийсь незрозумілий ріп. Джерело явно не HDClub.

Додано через 5 хвилин 44 секунди:

з переглянутих мною джерел усі мають відеоряд з VC-1, деякі з бітрейтом 33,1 Мб/с, деякі з 24 Мб/с. Вкажи, з якого джерела чи трансфера зроблено цей "ремукс"

Argentum 
Свій


З нами з: 25.09.11
Востаннє: 17.08.17
Повідомлень: 63

2017-03-05 21:53  
igor911
Цитата:
з переглянутих мною джерел усі мають відеоряд з VC-1, деякі з бітрейтом 33,1 Мб/с, деякі з 24 Мб/с. Вкажи, з якого джерела чи трансфера зроблено цей "ремукс"

файл знайшов на The Pirate Bay але роздача тепер відсутня в пошуку. Повернув попередній файл з відеорядом VC-1

igor911 
Відео Гуртом
Відео Гуртом


З нами з: 18.01.08
Востаннє: 16.08.17
Повідомлень: 7265

2017-03-05 22:00  
Argentum написано:
Повернув попередній файл

в результаті те саме, але тепер 0 сідів Sad (1)
врахуй це при наступних рухах з заміною торентів.

ВАВУНЯ 
Свій


З нами з: 30.06.15
Востаннє: 16.08.17
Повідомлень: 127

2017-03-05 22:05  
неадекватна роздача, м'яко кажучи Sad (1)
два дні завантажував перший варіант - ТС виклав, а роздати полінувався.
сьогодні знову якась лажа.

з.і. Argentum, попередній файл був 28,6 ГБ, а тут 28,42 ГБ. що ж Ви повернули?! О_о файл не хешується і мторрент висне.

Argentum 
Свій


З нами з: 25.09.11
Востаннє: 17.08.17
Повідомлень: 63

2017-03-05 22:05  
igor911 написано:

в результаті те саме, але тепер 0 сідів
врахуй це при наступних рухах з заміною торентів

Обов'язково врахую. Дякую

Sexy_Beast 
Новенький


З нами з: 18.02.17
Востаннє: 16.08.17
Повідомлень: 15

2017-03-05 23:26  
У мене все перехешувалося... Роздаю.
Ваш часовий пояс: GMT + 2 Години

Нова тема   Відповісти