Дитина Бріджит Джонс / Bridget Jones's Baby (2016) Remux 1080p Ukr/Eng | Sub Eng

Нові коментарі

Нова тема   Відповісти
Автор Повідомлення
staf777 
Відео Гуртом - підтримка та поширення
Відео Гуртом - підтримка та поширення


З нами з: 16.11.16
Востаннє: 20.10.17
Повідомлень: 522

2017-02-28 22:35  
Дитина Бріджит Джонс / Bridget Jones's Baby (2016) Remux 1080p Ukr/Eng | Sub Eng



Альтернативні постери




повнорозмірні зображення відкриються по кліку (з натиснутим CTRL чи кліком середньою кнопкою мишки - у новій вкладці)


Жанр: комедія, мелодрама
Країна: США, Велика Британія, Франція, Ірландія



Кінокомпанія: Miramax, StudioCanal, Universal Pictures, Working Title Films
Режисер: Шерон Маґвайр / Sharon Maguire
Актори: Рене Зеллвеґер / Renée Zellweger, Колін Ферт / Colin Firth, Патрік Демпсі / Patrick Dempsey, Саллі Філліпс / Sally Phillips, Бен Вілбонд / Ben Willbond, Сара Солемані / Sarah Solemani та інші

Сюжет:
Бріджит Джонс завжди мріяла про хеппі-енд. Але після офіційного розриву з Марком Дарсі, який нікуди не зник, а завжди поруч у вигляді запасного аеродрому, вона досі незаміжня, правда, з успішною кар'єрою телепродюсера. І тут життя ставить Бріджит романтичну підніжку у вигляді привабливого американця на ім'я Джек, який є повною протилежністю містера Дарсі. Віддавшись пристрасті, улюблениця всіх жінок планети виявляє, що вагітна і при цьому тільки на 50% впевнена, хто з чоловіків батько її дитини.

Офіційний український трейлер:
Альтернативний український офіційний трейлер



Рейтинг MPAA: R - особам до 17 років обов'язкова присутність батьків або дорослого опікуна
Вікова категорія: 16+

Тривалість: 02:02:39
Якість: Remux 1080p
Відео:
кодек:
розмір кадру:1920x1080
бітрейт: 31.6 Мбіт/с

Аудіо # 1:
мова: українська
переклад: професійний дубльований | студія LeDoyen
кодек: 2.0 (стерео)
бітрейт: 192 Кбіт/с
Інформація про дубляж
Фільм дубльовано студією LeDoyen на замовлення B&H Film Distribution
Переклад: Катерина Щепковська
Режисер дубляжу: Ольга Фокіна
Звукорежисер: Олена Лапіна
Звукорежисер перезапису: Дмитро Мялковський
Координатор проекту: Ольга Боєва
Ролі дублювали: Катерина Сергєєва, Олесь Гімбаржевський, Володимир Паляниця, Христина Забара, Наталя Задніпровська, Людмила Ардельян, Інна Бєлікова, Валерія Чайковська, Дмитро Завадський, Юрій Кудрявець, Віталіна Біблів та інші
Аудіо # 2:
мова: англійська
переклад: оригінал
кодек: HD MA 5.1
бітрейт: 3840 Кбіт/с

Субтитри # 1:
мова: українська (форсовані)
тип: програмні (м'які)
формат: *.srt

Субтитри # 2:
мова: англійська (SDH)
тип: пререндерні
формат: *.pgs
Info
Код:
General
Unique ID                                : 195797907770731111671966083810048785659 (0x934D4E2C3AFA940CBD57D7C9E2B2BCFB)
Complete name                            : H:\HDClub\BRIDGET_JONES'S_BABY_REMUX_HDCLUB\BDMV\STREAM\ Bridget Jones's Baby (2016) [Ukr,Eng sub.Eng] Remux 1080p [Hurtom].
Format                                   :
Format version                           : Version 4 / Version 2
File size                                : 30.7 GiB
Duration                                 : 2 h 2 min
Overall bit rate mode                    : Variable
Overall bit rate                         : 35.8 Mb/s
Movie name                               :  Bridget Jones's Baby (2016) [Ukr,Eng sub.Eng] Remux 1080p [Hurtom]
Encoded date                             : UTC 2017-03-03 10:17:44
Writing application                      : mkvmerge v9.8.0 ('Kuglblids') 64bit
Writing library                          : libebml v1.3.4 + libmatroska v1.4.5

Video
ID                                       : 1
Format                                   : AVC
Format/Info                              : Advanced Video Codec
Format profile                           : [email protected]
Format settings, CABAC                   : Yes
Format settings, ReFrames                : 4 frames
Format settings, GOP                     : M=3, N=12
Codec ID                                 : V_MPEG4/ISO/AVC
Duration                                 : 2 h 2 min
Bit rate mode                            : Variable
Bit rate                                 : 31.6 Mb/s
Maximum bit rate                         : 35.0 Mb/s
Width                                    : 1 920 pixels
Height                                   : 1 080 pixels
Display aspect ratio                     : 16:9
Frame rate mode                          : Constant
Frame rate                               : 23.976 (24000/1001) FPS
Color space                              : YUV
Chroma subsampling                       : 4:2:0
Bit depth                                : 8 bits
Scan type                                : Progressive
Bits/(Pixel*Frame)                       : 0.636
Stream size                              : 27.1 GiB (88%)
Default                                  : Yes
Forced                                   : No

Audio #1
ID                                       : 2
Format                                   : AC-3
Format/Info                              : Audio Coding 3
Mode extension                           : CM (complete main)
Format settings, Endianness              : Big
Codec ID                                 : A_AC3
Duration                                 : 2 h 2 min
Bit rate mode                            : Constant
Bit rate                                 : 192 kb/s
Channel(s)                               : 2 channels
Channel positions                        : Front: L R
Sampling rate                            : 48.0 kHz
Frame rate                               : 31.250 FPS (1536 spf)
Bit depth                                : 16 bits
Compression mode                         : Lossy
Stream size                              : 168 MiB (1%)
Title                                    : Dub [LeDoyen, iTunes] 2.0 [stereo] 192 kbps
Language                                 : Ukrainian
Default                                  : Yes
Forced                                   : Yes

Audio #2
ID                                       : 3
Format                                   :
Format/Info                              : Digital Theater Systems
Format profile                           : MA / Core
Mode                                     : 16
Format settings, Endianness              : Big
Codec ID                                 : A_DTS
Duration                                 : 2 h 2 min
Bit rate mode                            : Variable / Constant
Bit rate                                 : 3 840 kb/s / 1 509 kb/s
Channel(s)                               : 6 channels
Channel positions                        : Front: L C R, Side: L R, LFE
Sampling rate                            : 48.0 kHz
Frame rate                               : 93.750 FPS (512 spf)
Bit depth                                : 24 bits
Compression mode                         : Lossless / Lossy
Stream size                              : 3.27 GiB (11%)
Language                                 : English
Default                                  : No
Forced                                   : No

Audio #3
ID                                       : 4
Format                                   : AC-3
Format/Info                              : Audio Coding 3
Format profile                           : Dolby Digital
Mode extension                           : CM (complete main)
Format settings, Endianness              : Big
Codec ID                                 : A_AC3
Duration                                 : 2 h 2 min
Bit rate mode                            : Constant
Bit rate                                 : 192 kb/s
Channel(s)                               : 2 channels
Channel positions                        : Front: L R
Sampling rate                            : 48.0 kHz
Frame rate                               : 31.250 FPS (1536 spf)
Bit depth                                : 16 bits
Compression mode                         : Lossy
Stream size                              : 168 MiB (1%)
Language                                 : English
Default                                  : No
Forced                                   : No

Text #1
ID                                       : 5
Format                                   : UTF-8
Codec ID                                 : S_TEXT/UTF8
Codec ID/Info                            : UTF-8 Plain Text
Duration                                 : 1 h 43 min
Bit rate                                 : 2 b/s
Count of elements                        : 45
Stream size                              : 2.17 KiB (0%)
Title                                    : Ukr Forced [iTunes]
Language                                 : Ukrainian
Default                                  : Yes
Forced                                   : Yes

Text #2
ID                                       : 6
Format                                   : PGS
Muxing mode                              : zlib
Codec ID                                 : S_HDMV/PGS
Codec ID/Info                            : Picture based subtitle format used on BDs/HD-DVDs
Duration                                 : 1 h 54 min
Bit rate                                 : 16.5 kb/s
Count of elements                        : 4287
Stream size                              : 13.5 MiB (0%)
Language                                 : English
Default                                  : No
Forced                                   : No
Скріншоти





Джерело: &
Особиста оцінка: 8 - мені сподобалося
Дитина Бріджит Джонс / Bridget Jones's Baby (2016) Remux 1080p Ukr/Eng | Sub Eng


Дитина Бріджит Джонс / Bridget Jones's Baby (2016) Remux 1080p Ukr/Eng | Sub Eng


Золотий реліз (завантажене не впливає на рейтинг)
 Трекер:    Зареєстрований   

Завантажити / скачати фільм українською



відео для новачків



 Зареєстрований:   2017-03-03 15:00
 Розмір:   30.69 GB 
 Оцінка фільму:   9.3/10 (Голосів: 4)
   
яробор 
Новенький


З нами з: 09.12.16
Востаннє: 27.09.17
Повідомлень: 1

2017-03-03 09:45  
дякую
Deiv 
Свій


З нами з: 16.07.16
Востаннє: 20.10.17
Повідомлень: 100

2017-03-03 20:11  
Не плануєш першу та другу частину в Remux викласти?
staf777 
Відео Гуртом - підтримка та поширення
Відео Гуртом - підтримка та поширення


З нами з: 16.11.16
Востаннє: 20.10.17
Повідомлень: 522

2017-03-05 23:48  
Deiv
Ні

Ваш часовий пояс: GMT + 2 Години

Нова тема   Відповісти