Готель для собак / Hotel for Dogs (2009) 720p Ukr/Eng | Sub Ukr/Eng

Нові коментарі

Нова тема   Відповісти
Автор Повідомлення
Anonymous 







2017-02-28 19:52  
Готель для собак / Hotel for Dogs (2009) 720p Ukr/Eng | Sub Ukr/Eng


Альтернативні та український постери














повнорозмірні зображення відкриються по кліку (з натиснутим CTRL чи кліком середньою кнопкою мишки - у новій вкладці)

Жанр: комедія, сімейний
Країна: США, Німеччина



Кінокомпанія: DreamWorks, Nickelodeon Movies, Cold Spring Pictures, Donners' Company, Montecito Picture Company, Mavrocine
Режисер: Тор Фреденталь / Thor Freudenthal
Актори: Емма Робертс / Emma Roberts, Джейк Т. Остін / Jake T. Austin, Дон Чідл / Don Cheadle, Джонні Сіммонс / Johnny Simmons, Кайла Претт / Kyla Pratt, Лайза Кудроу / Lisa Kudrow та інші

Сюжет:
Енді та Брюсу необхідно якось влаштувати життя свого чотириногого улюбленця, собачки на ім’я П’ятниця, яку терпіти не можуть їх прийомні батьки. До рішення цієї задачі герої фільму підходять досить ґрунтовно. Разом зі своїми друзями-однодумцями, юні натуралісти у старій покинутій будівлі відкривають дуже сучасний готель для собак. У готелі – безліч Hi-tech пристосувань на зразок автоматичних напувалок, годівниць, розважалок та тренажерів, а перші відвідувачі – бродячі пси, зібрані по всій окрузі. Окрім облаштування побуту мешканців свого готелю, героям фільму доводиться вирішувати масу інших проблем, серед яких – боротьба з сусідами, яким не до душі галасливий заклад поряд з їх будинками.

Офіційний трейлер:


Рейтинг MPAA: PG - рекомендується присутність батьків
Вікова категорія: 0+

Тривалість: 01:39:59
Якість: 720p
Відео:
кодек:
розмір кадру: 1280 х 720
бітрейт: 8971 кб/с [crf=17.4]

Аудіо # 1:
мова: українська
переклад: професійний дубльований | студія LeDoyen
кодек: 5.1
бітрейт: 384 кб/с
Інформація про дубляж
Фільм дубльовано студією LeDoyen на замовлення B&H Film Distribution у 2009 році
Переклад: Федор Сидорук
Режисер дубляжу: Ольга Фокіна
Звукорежисер: Дмитро Мялковський
Координатор проекту: Мирослава Сидорук
Ролі дублювали: Дарина Муращенко, Тарас Нестеренко, Римма Зюбіна, Юрій Ребрик, Іван Оглоблін, Олег Лепенець, Катерина Коновалова, Максим Кондратюк, Катерина Брайковська та інші
Аудіо # 2:
мова: англійська
переклад: оригінал
кодек: 5.1
бітрейт: 640 кб/с

Субтитри # 1:
мова: українська (повні)
тип: програмні (м'які)
формат: srt (UTF-8)

Субтитри # 2-3:
мова: англійська (повні, SDH)
тип: програмні (м'які)
формат: *.srt

Збережено оригінальні розділи, як на Blu-ray
Info та log
Код:
Format                      :
Format version              : Version 4 / Version 2
File size                   : 6.98 GiB
Duration                    : 1 h 39 min
Overall bit rate            : 9 998 kb/s

Video
ID                          : 1
Format                      : AVC
Format/Info                 : Advanced Video Codec
Format profile              : [email protected]
Format settings, CABAC      : Yes
Format settings, ReFrames   : 8 frames
Codec ID                    : V_MPEG4/ISO/AVC
Duration                    : 1 h 39 min
Bit rate                    : 8 971 kb/s
Width                       : 1 280 pixels
Height                      : 720 pixels
Display aspect ratio        : 16:9
Frame rate mode             : Constant
Frame rate                  : 23.976 (24000/1001) FPS
Color space                 : YUV
Chroma subsampling          : 4:2:0
Bit depth                   : 8 bits
Scan type                   : Progressive
Bits/(Pixel*Frame)          : 0.406
Stream size                 : 6.27 GiB (90%)
Title                       : Готель для собак / Hotel for Dogs (2009) 720p [eFK tRuAVC]
Writing library             : core 148 r2638kMod 7599210
Encoding settings           : cabac=1 / ref=8 / deblock=1:-3:-3 / analyse=0x3:0x113 / me=umh / subme=11 / psy=1 / fade_compensate=0.00 / psy_rd=1.07:0.00 / mixed_ref=1 / me_range=48 / chroma_me=1 / trellis=2 / 8x8dct=1 / cqm=0 / deadzone=21,11 / fast_pskip=0 / chroma_qp_offset=-2 / threads=12 / lookahead_threads=3 / sliced_threads=0 / nr=0 / decimate=1 / interlaced=0 / bluray_compat=0 / constrained_intra=0 / fgo=0 / bframes=16 / b_pyramid=2 / b_adapt=2 / b_bias=0 / direct=3 / weightb=1 / open_gop=0 / weightp=2 / keyint=250 / keyint_min=23 / scenecut=40 / intra_refresh=0 / rc_lookahead=60 / rc=crf / mbtree=0 / crf=17.4000 / qcomp=0.70 / qpmin=0 / qpmax=69 / qpstep=4 / vbv_maxrate=62500 / vbv_bufsize=78125 / crf_max=0.0 / nal_hrd=none / filler=0 / ip_ratio=1.40 / pb_ratio=1.30 / aq=3:0.85
Language                    : English
Default                     : Yes
Forced                      : No
Color range                 : Limited
Color primaries             : BT.709
Transfer characteristics    : BT.709
Matrix coefficients         : BT.709

Audio #1
ID                          : 2
Format                      : AC-3
Format/Info                 : Audio Coding 3
Mode extension              : CM (complete main)
Format settings, Endianness : Big
Codec ID                    : A_AC3
Duration                    : 1 h 39 min
Bit rate mode               : Constant
Bit rate                    : 384 kb/s
Channel(s)                  : 6 channels
Channel positions           : Front: L C R, Side: L R, LFE
Sampling rate               : 48.0 kHz
Frame rate                  : 31.250 FPS (1536 spf)
Bit depth                   : 16 bits
Compression mode            : Lossy
Stream size                 : 275 MiB (4%)
Title                       : Dub [LeDoyen, DVD] 5.1 384 Kbps [Hurtom
Language                    : Ukrainian
Default                     : Yes
Forced                      : Yes

Audio #2
ID                          : 3
Format                      : AC-3
Format/Info                 : Audio Coding 3
Mode extension              : CM (complete main)
Format settings, Endianness : Big
Codec ID                    : A_AC3
Duration                    : 1 h 39 min
Bit rate mode               : Constant
Bit rate                    : 640 kb/s
Channel(s)                  : 6 channels
Channel positions           : Front: L C R, Side: L R, LFE
Sampling rate               : 48.0 kHz
Frame rate                  : 31.250 FPS (1536 spf)
Bit depth                   : 16 bits
Compression mode            : Lossy
Stream size                 : 458 MiB (6%)
Title                       : Original, 5.1 640 Kbps
Language                    : English
Default                     : No
Forced                      : No

Text #1
ID                          : 4
Format                      : UTF-8
Codec ID                    : S_TEXT/UTF8
Codec ID/Info               : UTF-8 Plain Text
Duration                    : 1 h 30 min
Bit rate                    : 81 b/s
Count of elements           : 875
Stream size                 : 53.4 KiB (0%)
Title                       : Ukr full
Language                    : Ukrainian
Default                     : No
Forced                      : No

Text #2
ID                          : 5
Format                      : UTF-8
Codec ID                    : S_TEXT/UTF8
Codec ID/Info               : UTF-8 Plain Text
Duration                    : 1 h 30 min
Bit rate                    : 47 b/s
Count of elements           : 864
Stream size                 : 31.6 KiB (0%)
Title                       : Eng full
Language                    : English
Default                     : No
Forced                      : No

Text #3
ID                          : 6
Format                      : UTF-8
Codec ID                    : S_TEXT/UTF8
Codec ID/Info               : UTF-8 Plain Text
Duration                    : 1 h 33 min
Bit rate                    : 53 b/s
Count of elements           : 1178
Stream size                 : 36.9 KiB (0%)
Title                       : Eng SDH
Language                    : English
Default                     : No
Forced                      : No

Menu
00:00:00.000                : en:00:00:00.000
00:04:12.961                : en:00:04:12.961
00:07:48.385                : en:00:07:48.385
00:14:47.053                : en:00:14:47.053
00:20:36.569                : en:00:20:36.569
00:27:26.144                : en:00:27:26.144
00:33:09.196                : en:00:33:09.196
00:39:19.566                : en:00:39:19.566
00:46:31.247                : en:00:46:31.247
00:53:08.435                : en:00:53:08.435
00:59:30.108                : en:00:59:30.108
01:05:03.233                : en:01:05:03.233
01:10:21.092                : en:01:10:21.092
01:18:32.166                : en:01:18:32.166
01:24:43.161                : en:01:24:43.161
01:33:53.878                : en:01:33:53.878


Код:
[info]: frame I:1084 Avg QP:15.62 size:163190
[info]: frame P:34626 Avg QP:17.18 size: 78756
[info]: frame B:108122 Avg QP:19.03 size: 35362
[info]: consecutive B-frames: 2.1% 4.5% 8.3% 37.5% 16.9% 27.2% 1.7% 1.2% 0.2% 0.2% 0.0% 0.1% 0.0% 0.0% 0.0% 0.0% 0.1%
[info]: mb I I16..4: 4.2% 79.7% 16.1%
[info]: mb P I16..4: 0.8% 23.8% 1.8% P16..4: 23.2% 30.5% 13.2% 0.0% 0.0% skip: 6.8%
[info]: mb B I16..4: 0.1% 3.4% 0.2% B16..8: 35.7% 23.7% 5.7% direct: 9.1% skip:22.1% L0:40.7% L1:41.8% BI:17.5%
[info]: 8x8 transform intra:90.0% inter:57.9%
[info]: direct mvs spatial:100.0% temporal:0.0%
[info]: coded y,uvDC,uvAC intra: 94.9% 93.1% 82.2% inter: 45.9% 38.4% 17.9%
[info]: i16 v,h,dc,p: 65% 9% 6% 21%
[info]: i8 v,h,dc,ddl,ddr,vr,hd,vl,hu: 9% 7% 11% 10% 14% 13% 13% 12% 13%
[info]: i4 v,h,dc,ddl,ddr,vr,hd,vl,hu: 10% 7% 5% 9% 16% 15% 14% 12% 12%
[info]: i8c dc,h,v,p: 53% 14% 14% 19%
[info]: Weighted P-Frames: Y:3.6% UV:2.6%
[info]: ref P L0: 45.9% 13.2% 18.9% 6.5% 5.5% 3.7% 3.6% 2.4% 0.3% 0.0%
[info]: ref B L0: 78.2% 11.2% 4.7% 2.5% 1.7% 1.0% 0.5%
[info]: ref B L1: 94.6% 5.4%
[info]: kb/s:8971.23
[total]: encoded 143832 frames, 5.43 fps, 8971.23 kb/s, duration 7:21:26.94


Джерело: &
Подяка karvai0 за український звук та субтитри

Особиста оцінка: 10 - рекомендую всім дітям та їх батькам

ЗАЛИШАЙТЕСЬ ЯКОМОГА ДОВШЕ НА РОЗДАЧІ
ЗАВАНТАЖИВ САМ - ДАЙ ЗАВАНТАЖИТИ ІНШИМ!


 Трекер:    Зареєстрований   

Завантажити / скачати фільм українською



відео для новачків



 Зареєстрований:   2017-02-28 21:41
 Розмір:   6.98 GB 
 Оцінка фільму:   5.8/10 (Голосів: 22)
   
Інші релізи
   Готель для собак / Hotel for Dogs (2009) 2xUkr/Eng | Sub Ukr/Eng Arsenfpu  3 / 0   1.73 GB   2017-10-29 16:07 
   Готель для собак / Hotel for Dogs (2009) DVD5 Skiff  1 / 0   4.08 GB   2009-06-25 22:12 
svoboda181 
VIP


З нами з: 06.01.10
Востаннє: 03.08.20
Повідомлень: 254

2017-02-28 22:57  
Гарне кіно, тут відеоряд російський?
Anonymous 







2017-02-28 23:02  
svoboda181, ні відеоряд оригінальний.
leicheman 
Відео Гуртом - фільмокрай
Відео Гуртом - фільмокрай


З нами з: 03.07.14
Востаннє: 04.08.20
Повідомлень: 5221

2017-02-28 23:41  
фільм не поганий, десь на 6.
дітям сподобається)

Ваш часовий пояс: GMT + 2 Години

Нова тема   Відповісти