Не вимикай світло / Lights Out (2016) Remux 1080p Ukr/Eng | Sub Eng

Нові коментарі

Нова тема   Відповісти
Автор Повідомлення
staf777 
Відео Гуртом - підтримка та поширення
Відео Гуртом - підтримка та поширення


З нами з: 16.11.16
Востаннє: 22.05.19
Повідомлень: 2378

2017-02-27 20:07  
Не вимикай світло / Lights Out (2016) Remux 1080p Ukr/Eng | Sub Eng

Не вимикай світло / Lights Out (2016) Remux 1080p Ukr/Eng | Sub Eng


Жанр: жахи, трилер
Країна: США



Кінокомпанія: New Line Cinema, Atomic Monster, Grey Matter
Режисер: Девід Ф. Сандберг
Актори: Тереза Палмер, Емілі Елін Лінд, Алісія Вела-Бейлі, Гебріел Бейтман, Олександр ДіПерсіа, Марія Рассел

Сюжет:
Напевно, кожен із нас бодай раз бував у ситуації, коли в темряві щось ввижається. Але одна річ, коли це просто гра уяви, і зовсім інше, коли ти насправді бачиш когось після того, як світло вимкнено. Тоді-то вже не до жартів. Коли Мартін (Гебріел Бейтман) уперше побачив силует жінки, він розповів про це старшій сестрі Ребеці (Тереза Палмер). Намагаючись з'ясувати, що ж діється, родина все більше поринає в безперервний кошмар. Уникнути вимикання світла неможливо, і небезпека стає реальною.


Тривалість: 01:20:57
Якість: Remux 1080p

Відео:
кодек:
розмір кадру: 1920x1080
бітрейт: 32.4 Mб/с

Аудіо #1:
мова: українська
переклад: професійний дубльований
кодек: 2.0
бітрейт: 192 кб/с

Аудіо # 2:
мова: англійська
переклад: оригінал
кодек: -HD MA 5.1
бітрейт: 3477 кб/с

Аудіо # 3:
мова: англійська
переклад: описова
кодек: 5.1
бітрейт: 640 кб/с

Субтитри:
мова: англійська
тип: пререндерні
формат: PGS
Info
Код:

General
Unique ID                                : 197973493791105739974681436305164329965 (0x94F04ED8595DDDFAAFF1968531B7E3ED)
Complete name                            : P:\HDClub\LIGHTS_OUT_REMUX_HDCLUB\BDMV\STREAM\ Lights Out (2016) [Ukr,Eng sub.Eng] Remux 1080p [Hurtom].
Format                                   :
Format version                           : Version 4 / Version 2
File size                                : 20.8 GiB
Duration                                 : 1 h 20 min
Overall bit rate mode                    : Variable
Overall bit rate                         : 36.8 Mb/s
Movie name                               :  Lights Out (2016) [Ukr,Eng sub.Eng] Remux 1080p [Hurtom]
Encoded date                             : UTC 2017-02-28 12:16:44
Writing application                      : v9.8.0 ('Kuglblids') 64bit
Writing library                          : libebml v1.3.4 + v1.4.5

Video
ID                                       : 1
Format                                   : AVC
Format/Info                              : Advanced Video Codec
Format profile                           : [email protected]
Format settings, CABAC                   : Yes
Format settings, ReFrames                : 4 frames
Codec ID                                 : V_MPEG4/ISO/AVC
Duration                                 : 1 h 20 min
Bit rate mode                            : Variable
Bit rate                                 : 32.4 Mb/s
Maximum bit rate                         : 35.0 Mb/s
Width                                    : 1 920 pixels
Height                                   : 1 080 pixels
Display aspect ratio                     : 16:9
Frame rate mode                          : Constant
Frame rate                               : 23.976 (24000/1001) FPS
Color space                              : YUV
Chroma subsampling                       : 4:2:0
Bit depth                                : 8 bits
Scan type                                : Progressive
Bits/(Pixel*Frame)                       : 0.653
Stream size                              : 18.3 GiB (88%)
Default                                  : Yes
Forced                                   : No

Audio #1
ID                                       : 2
Format                                   : AC-3
Format/Info                              : Audio Coding 3
Mode extension                           : CM (complete main)
Format settings, Endianness              : Big
Codec ID                                 : A_AC3
Duration                                 : 1 h 20 min
Bit rate mode                            : Constant
Bit rate                                 : 192 kb/s
Channel(s)                               : 2 channels
Channel positions                        : Front: L R
Sampling rate                            : 48.0 kHz
Frame rate                               : 31.250 FPS (1536 spf)
Bit depth                                : 16 bits
Compression mode                         : Lossy
Stream size                              : 111 MiB (1%)
Language                                 : Ukrainian
Default                                  : Yes
Forced                                   : Yes

Audio #2
ID                                       : 3
Format                                   :
Format/Info                              : Digital Theater Systems
Format profile                           : MA / Core
Mode                                     : 16
Format settings, Endianness              : Big
Codec ID                                 : A_DTS
Duration                                 : 1 h 20 min
Bit rate mode                            : Variable / Constant
Bit rate                                 : 3 477 kb/s / 1 509 kb/s
Channel(s)                               : 6 channels
Channel positions                        : Front: L C R, Side: L R, LFE
Sampling rate                            : 48.0 kHz
Frame rate                               : 93.750 FPS (512 spf)
Bit depth                                : 24 bits
Compression mode                         : Lossless / Lossy
Stream size                              : 1.97 GiB (9%)
Language                                 : English
Default                                  : No
Forced                                   : No

Audio #3
ID                                       : 4
Format                                   : AC-3
Format/Info                              : Audio Coding 3
Mode extension                           : CM (complete main)
Format settings, Endianness              : Big
Codec ID                                 : A_AC3
Duration                                 : 1 h 20 min
Bit rate mode                            : Constant
Bit rate                                 : 640 kb/s
Channel(s)                               : 6 channels
Channel positions                        : Front: L C R, Side: L R, LFE
Sampling rate                            : 48.0 kHz
Frame rate                               : 31.250 FPS (1536 spf)
Bit depth                                : 16 bits
Compression mode                         : Lossy
Stream size                              : 371 MiB (2%)
Language                                 : English
Default                                  : No
Forced                                   : No

Text
ID                                       : 5
Format                                   : PGS
Muxing mode                              : zlib
Codec ID                                 : S_HDMV/PGS
Codec ID/Info                            : Picture based subtitle format used on BDs/HD-DVDs
Duration                                 : 1 h 20 min
Bit rate                                 : 8 505 b/s
Count of elements                        : 1932
Stream size                              : 4.87 MiB (0%)
Language                                 : English
Default                                  : No
Forced                                   : No
Скріншоти






Підтримати купівлю інших фільмів можна тут.

Подяка пану Hanway за синхронізацію і пану AngryBirdsUA за доріжку.

Джерело: &
Особиста оцінка: 8 - мені сподобалося
Не вимикай світло / Lights Out (2016) Remux 1080p Ukr/Eng | Sub Eng


Не вимикай світло / Lights Out (2016) Remux 1080p Ukr/Eng | Sub Eng


Золотий реліз (завантажене не впливає на рейтинг)
 Трекер:    Зареєстрований   

Завантажити / скачати фільм українською



відео для новачків



 Зареєстрований:   2017-02-28 17:45
 Розмір:   20.79 GB 
 Оцінка фільму:   8.9/10 (Голосів: 9)
   
Інші релізи
Ваш часовий пояс: GMT + 2 Години

Нова тема   Відповісти