Зоряні Війни: Війни клонів (Сезон 5, Епізоди 1-8, 12-20) / Star Wars: The Clone Wars (Season 5, Episodes 1-8, 12-20) (2012) AVC Ukr/Eng

Нові коментарі

Нова тема   Відповісти
Автор Повідомлення
radagastr 
Відео Гуртом - фільмокрай
Відео Гуртом - фільмокрай


З нами з: 05.12.08
Востаннє: 15.10.17
Повідомлень: 1070

2017-02-26 23:03  
Зоряні Війни: Війни клонів (Сезон 5, Епізоди 1-8, 12-20) / Star Wars: The Clone Wars (Season 5, Episodes 1-8, 12-20) (2012) AVC Ukr/Eng


Жанр: анімація, пригодницький, сімейний, фантастика
Країна: США


Кінокомпанія: CGCG, Lucasfilm.
Режисер: Дейв Філоні.
Ролі озвучують (в оригіналі): Кетрін Табе, Метт Лентер, Ешлі Екстайн, Том Кейн, Метью Вуд...
Українською озвучують: Євген Малуха та ...

Сюжет: Дія у мультсеріалі розгортаються на часовому проміжку між другим та третім епізодами фільму "Зоряні Війни". Кожна серія описує невеликий період Війн Клонів. На передових позиціях міжгалактичної війни Добра і Зла знову Енакін Скайуокер, Обі-Ван Кенобі, Падме Амідала, а також падаван Енакіна - Асока, з іншого боку їм протистоять Палпалатін, граф Дуку, генерал Грівус і багато їхніх спільників.


Тривалість: 1 серія ~22 хвилини (цілком серій: 17)
Перелік серій
  1. Revival
    Девіз:

  2. A War on Two Fronts
    Девіз:

  3. Front Runners
    Девіз:

  4. The Soft War
    Девіз:

  5. Tipping Points
    Девіз:

  6. The Gathering
    Девіз:

  7. A Test of Strength
    Девіз:

  8. Bound for Rescue
    Девіз:

  9. A Necessary Bond
    Девіз:

  10. Secret Weapons
    Девіз:

  11. A Sunny Day in the Void
    Девіз:

  12. Missing in Action
    Девіз:

  13. Point of No Return
    Девіз:

  14. Eminence
    Девіз:

  15. Shades of Reason
    Девіз:

  16. The Lawless
    Девіз:

  17. Sabotage
    Девіз:

  18. The Jedi Who Knew Too Much
    Девіз:

  19. To Catch a Jedi
    Девіз:

  20. The Wrong Jedi
    Девіз:

    <... більше деталей згодом ...>

x
Якість: AVC
Контейнер: MP4
Info

General
Complete name : D:\movies\Star Wars The Clone Wars - Season 5 [Ukr, Eng] [Hurtom]\The Clone Wars s05e01 [ukr,eng] [Hurtom].mp4
Format : MPEG-4
Format profile : Base Media
Codec ID : isom (isom/avc1)
File size : 212 MiB
Duration : 22 min 17 s
Overall bit rate mode : Variable
Overall bit rate : 1 332 kb/s
Encoded date : UTC 2017-02-21 20:59:04
Tagged date : UTC 2017-02-21 20:59:04

Video
ID : 1
Format : AVC
Format/Info : Advanced Video Codec
Format profile : [email protected]
Format settings, CABAC : Yes
Format settings, ReFrames : 2 frames
Codec ID : avc1
Codec ID/Info : Advanced Video Coding
Duration : 22 min 17 s
Bit rate : 1 115 kb/s
Maximum bit rate : 4 532 kb/s
Width : 720 pixels
Height : 406 pixels
Display aspect ratio : 16:9
Frame rate mode : Constant
Frame rate : 23.976 (24000/1001) FPS
Color space : YUV
Chroma subsampling : 4:2:0
Bit depth : 8 bits
Scan type : Progressive
Bits/(Pixel*Frame) : 0.159
Stream size : 171 MiB (80%)
Writing library : core 142 r2431kMod ac76440
Encoding settings : cabac=1 / ref=2 / deblock=1:0:0 / analyse=0x3:0x133 / me=hex / subme=6 / psy=1 / fade_compensate=0.00 / psy_rd=1.00:0.00 / mixed_ref=1 / me_range=16 / chroma_me=1 / trellis=1 / 8x8dct=1 / cqm=0 / deadzone=21,11 / fast_pskip=1 / chroma_qp_offset=-2 / threads=7 / lookahead_threads=1 / sliced_threads=0 / nr=0 / decimate=1 / interlaced=0 / bluray_compat=0 / constrained_intra=0 / fgo=0 / bframes=1 / b_pyramid=0 / b_adapt=1 / b_bias=0 / direct=3 / weightb=1 / open_gop=0 / weightp=2 / keyint=250 / keyint_min=25 / scenecut=40 / intra_refresh=0 / rc_lookahead=40 / rc=abr / mbtree=1 / bitrate=1115 / ratetol=1.0 / qcomp=0.60 / qpmin=0 / qpmax=69 / qpstep=4 / vbv_maxrate=5000 / vbv_bufsize=500 / nal_hrd=none / filler=0 / ip_ratio=1.40 / aq=1:1.00
Encoded date : UTC 2017-02-21 20:59:04
Tagged date : UTC 2017-02-21 20:59:07

Audio #1
ID : 2
Format :
Format/Info : Advanced Audio Codec
Format profile : LC
Codec ID : 40
Duration : 22 min 17 s
Bit rate mode : Variable
Bit rate : 128 kb/s
Maximum bit rate : 146 kb/s
Channel(s) : 2 channels
Channel positions : Front: L R
Sampling rate : 48.0 kHz
Frame rate : 46.875 FPS (1024 spf)
Compression mode : Lossy
Stream size : 20.4 MiB (10%)
Encoded date : UTC 2017-02-21 20:48:55
Tagged date : UTC 2017-02-21 20:59:07

Audio #2
ID : 3
Format :
Format/Info : Advanced Audio Codec
Format profile : LC
Codec ID : 40
Duration : 22 min 17 s
Bit rate mode : Variable
Bit rate : 128 kb/s
Maximum bit rate : 175 kb/s
Channel(s) : 2 channels
Channel positions : Front: L R
Sampling rate : 48.0 kHz
Frame rate : 46.875 FPS (1024 spf)
Compression mode : Lossy
Stream size : 20.4 MiB (10%)
Encoded date : UTC 2017-02-21 20:48:56
Tagged date : UTC 2017-02-21 20:59:07
Відео:
кодек:
розмір кадру: 720 х 406
бітрейт: ~1100 кб/с

Аудіо 1:
мова: українська
переклад: багатоголосий закадровий
кодек: LC-
бітрейт: 128 кб/с

Аудіо 2:
мова: англійська
переклад: оригінал
кодек: LC-
бітрейт: 128 кб/с

Переклад і озвучення виконано:

Скріншоти:
Натискати сюди


x
Величезна подяка за сирий звук - aaa4523.

На жаль у кількох серіях є прогалини в озвучці. Тому про це має бути написано:
16 серія - лише англійська на проміжку 05:50 - 13:08 (субтитри українською в роздачі)
20 серія - лише англійською девіз серії і "в попередніх серіях"


Джерело: .
Особиста оцінка: 8 - мені сподобалося


Бронзовий реліз (на рейтинг впливає 75% завантаженого)
 Трекер:    Зареєстрований   

Завантажити / скачати мультфільм українською



відео для новачків



 Зареєстрований:   2017-02-27 21:04
 Розмір:   3.57 GB 
 Оцінка мультсеріалу:   10/10 (Голосів: 5)
   
radagastr 
Відео Гуртом - фільмокрай
Відео Гуртом - фільмокрай


З нами з: 05.12.08
Востаннє: 15.10.17
Повідомлень: 1070

2017-02-26 23:04  
720р можна знайти тут https://toloka.to/t80227
radagastr 
Відео Гуртом - фільмокрай
Відео Гуртом - фільмокрай


З нами з: 05.12.08
Востаннє: 15.10.17
Повідомлень: 1070

2017-02-27 21:10  
Даруйте, забув вказати що є кілька епізодів де прогалини в озвучці. Оновив перший пост і додав субтитри для місяця без озвучки до релізу.
lukja 
Новенький


З нами з: 26.07.09
Востаннє: 16.10.17
Повідомлень: 12

2017-02-28 16:21  
А чи існує шостий сезон з українською озвучкою?
radagastr 
Відео Гуртом - фільмокрай
Відео Гуртом - фільмокрай


З нами з: 05.12.08
Востаннє: 15.10.17
Повідомлень: 1070

2017-02-28 23:25  
lukja написано:
А чи існує шостий сезон з українською озвучкою?

я про таке не чув

Ваш часовий пояс: GMT + 2 Години

Нова тема   Відповісти