Останній легіон / The Last Legion (2007) Remux 1080p Ukr/Eng | Sub Eng

Нові коментарі

Нова тема   Відповісти
Останній раз роздавалося staf777 (2017-08-16)
Автор Повідомлення
staf777 
Відео Гуртом - підтримка та поширення
Відео Гуртом - підтримка та поширення


З нами з: 16.11.16
Востаннє: 16.08.17
Повідомлень: 522

2017-02-26 19:22  
Останній легіон / The Last Legion (2007) Remux 1080p Ukr/Eng | Sub Eng

Останній легіон / The Last Legion (2007) Remux 1080p Ukr/Eng | Sub Eng


Жанр: фентезі, бойовик, пригодницький, військовий
Країна: Франція, Велика Британія, Італія, Туніс



Кінокомпанія: Dino De Laurentiis Company, Quinta Communications, Ingenious Film Partners, Nimar Studios, Zephyr Films
Режисер: Даг Лефтер / Doug Lefler
Актори: Колін Ферт / Colin Firth, Бен Кінґслі / Ben Kingsley, Айшварія Рай / Aishwarya Rai, Кевін МакКідд / Kevin McKidd, Пітер Муллан / Peter Mullan, Джон Ханна / John Hannah та інші

Сюжет:
476 рік нашої ери. Агонія Римської імперії… Династія Цезарів переможена… Останнього імператора, 12-річного Ромулуса Августуса, що керував країною всього лише один день, варвари ув'язнюють у в'язниці на острові Капрі.

Проте з допомогою свого наставника та легіонера Августус здійснює втечу і відправляється в ризиковану подорож до берегів Британії, щоб очолити Дев'ятий легіон, єдиний, що зберіг свою вірність Риму. Останній легіон… Августус повинен врятувати країну, повернути владу, відновити династію. До кого схильні небеса у вирішальній битві?


Тривалість: 01:41:55
Якість: Remux 1080p
Відео:
кодек:
розмір кадру: 1920x1080
бітрейт: 16989 кб/с

Аудіо # 1: та
мова: українська
переклад: багатоголосий закадровий
кодек: 2.0
бітрейт: 192 кб/с

Аудіо # 2:
мова: англійська
переклад: оригінал
кодек: -HD MA 5.1
бітрейт: 2370 кб/с

Субтитри #1- 2:
мова: англійська
тип: пререндерні
формат: *.pgs
Скріншоти



MI
General
Unique ID : 233134987807153810857377238024233524914 (0xAF642A5852E820A29D57186F13399EB2)
Complete name : P:\HD українською » Фільми в HD\Фентезі\The Last Legion (2007)[Ukr,Eng sub.Eng] Remux 1080p [Hurtom].
Format :
Format version : Version 4 / Version 2
File size : 13.9 GiB
Duration : 1 h 41 min
Overall bit rate mode : Variable
Overall bit rate : 19.6 Mb/s
Movie name : The Last Legion (2007)[Ukr,Eng sub.Eng] Remux 1080p [Hurtom]
Encoded date : UTC 2017-03-02 07:11:36
Writing application : mkvmerge v9.8.0 ('Kuglblids') 64bit
Writing library : libebml v1.3.4 + libmatroska v1.4.5

Video
ID : 1
Format : AVC
Format/Info : Advanced Video Codec
Format profile : [email protected]
Format settings, CABAC : Yes
Format settings, ReFrames : 4 frames
Codec ID : V_MPEG4/ISO/AVC
Duration : 1 h 41 min
Bit rate mode : Variable
Bit rate : 17.0 Mb/s
Maximum bit rate : 40.0 Mb/s
Width : 1 920 pixels
Height : 1 080 pixels
Display aspect ratio : 16:9
Frame rate mode : Constant
Frame rate : 23.976 (24000/1001) FPS
Color space : YUV
Chroma subsampling : 4:2:0
Bit depth : 8 bits
Scan type : Progressive
Bits/(Pixel*Frame) : 0.342
Stream size : 12.1 GiB (87%)
Language : English
Default : Yes
Forced : No
Color range : Limited
Color primaries : BT.709
Transfer characteristics : BT.709
Matrix coefficients : BT.709

Audio #1
ID : 2
Format : AC-3
Format/Info : Audio Coding 3
Mode extension : CM (complete main)
Format settings, Endianness : Big
Codec ID : A_AC3
Duration : 1 h 41 min
Bit rate mode : Constant
Bit rate : 192 kb/s
Channel(s) : 2 channels
Channel positions : Front: L R
Sampling rate : 48.0 kHz
Frame rate : 31.250 FPS (1536 spf)
Bit depth : 16 bits
Compression mode : Lossy
Stream size : 140 MiB (1%)
Language : Ukrainian
Default : Yes
Forced : Yes

Audio #2
ID : 3
Format :
Format/Info : Digital Theater Systems
Format profile : MA / Core
Mode : 16
Format settings, Endianness : Big
Codec ID : A_DTS
Duration : 1 h 41 min
Bit rate mode : Variable / Constant
Bit rate : 2 370 kb/s / 1 509 kb/s
Channel(s) : 6 channels
Channel positions : Front: L C R, Side: L R, LFE
Sampling rate : 48.0 kHz
Frame rate : 93.750 FPS (512 spf)
Bit depth : 16 bits
Compression mode : Lossless / Lossy
Stream size : 1.69 GiB (12%)
Language : English
Default : No
Forced : No

Text #1
ID : 4
Format : PGS
Muxing mode : zlib
Codec ID : S_HDMV/PGS
Codec ID/Info : Picture based subtitle format used on BDs/HD-DVDs
Duration : 1 h 41 min
Bit rate : 6 085 b/s
Count of elements : 1418
Stream size : 4.40 MiB (0%)
Language : English
Default : No
Forced : No

Text #2
ID : 5
Format : PGS
Muxing mode : zlib
Codec ID : S_HDMV/PGS
Codec ID/Info : Picture based subtitle format used on BDs/HD-DVDs
Duration : 1 h 32 min
Bit rate : 12.6 kb/s
Count of elements : 1860
Stream size : 8.37 MiB (0%)
Language : English
Default : No
Forced : No
Джерело: &
Подяки: - _oles'ю за зведення звуку, drakon87 та akon111 за запис з ТБ; Dj BenLaden'у за українізований постер
Особиста оцінка: 8 - мені сподобалося
Останній легіон / The Last Legion (2007) Remux 1080p Ukr/Eng | Sub Eng


Останній легіон / The Last Legion (2007) Remux 1080p Ukr/Eng | Sub Eng


Золотий реліз (завантажене не впливає на рейтинг)
 Трекер:    Зареєстрований   

Завантажити / скачати фільм українською



відео для новачків



 Зареєстрований:   2017-03-02 12:53
 Розмір:   13.93 GB 
 Оцінка фільму:   -/10 (Голосів: 0)
   
Інші релізи
   Останній легіон / The Last Legion (2007) 720p Ukr/Eng | Sub Eng igor911  2 / 0   5.6 GB   2014-10-08 20:56 
   Останній легіон / The Last Legion (2007) Ukr/Eng _oles  3 / 0   1.78 GB   2009-08-03 11:25 
Roman7Fedorak 
Частий відвідувач


З нами з: 30.03.12
Востаннє: 21.08.17
Повідомлень: 40

2017-02-28 18:16  
Що за Колін Фірс на постері?
Ваш часовий пояс: GMT + 2 Години

Нова тема   Відповісти