Острів скарбів / Treasure Island (2012) Remux 1080p Ukr/Eng | Sub Eng

Нові коментарі

Нова тема   Відповісти
Автор Повідомлення
staf777 
Відео Гуртом - підтримка та поширення
Відео Гуртом - підтримка та поширення


З нами з: 16.11.16
Востаннє: 06.11.17
Повідомлень: 522

2017-02-26 17:34  
Острів скарбів / Treasure Island (2012) Remux 1080p Ukr/Eng | Sub Eng

Острів скарбів / Treasure Island (2012) Remux 1080p Ukr/Eng | Sub Eng
Оригінальна обкладинка

Острів скарбів / Treasure Island (2012) Remux 1080p Ukr/Eng | Sub Eng
Жанр: пригодницький
Країна: Велика Британія, Ірландія



Кінокомпанія: Kindle Entertainment, MNG Films, Parallel Film
Режисер: Стів Беррон
Актори: Едді Іззард, Тобі Реґбо, Руперт Пенрі-Джонс, Деніел Мейс, Філіп Ґленістер, Доналд Сазерленд, Елайджа Вуд, Ширлі Гендерсон, Ніна Сосанья, Джофф Белл

Сюжет:
Юний Джим Гокінс і друг його покійного батька, доктор Лівсі, стають володарями карти, яка колись належала легендарному пірату, капітану Флінту. На ній вказані координати загубленого в Атлантичному океані острова, де сховані скарби знаменитого флібустьєра. Невдовзі, заручившись підтримкою заможного джентльмена, сквайра Трелоні, на спорядженій ним шхуні "Іспаньйола" вони починають небезпечне плавання, не здогадуючись, що разом з ними за скарбом вирушив кровожерний пірат Джон Сільвер, який прикинувся скромним корабельним коком, а з ним – кілька його безжальних спільників зі старої команди Флінта...


Тривалість: 03:02:14
Якість: Remux 1080
Відео:
кодек:
розмір кадру: 1920x1080
бітрейт: 14300 кб/с

Аудіо # 1:
мова: українська
переклад: багатоголосий закадровий
кодек: 2.0
бітрейт: 192 кб/с

Аудіо # 2:
мова: англійська
переклад: оригінал
кодек: -HD MA 5.1
бітрейт: 1981 кб/с

Субтитри:
мова: англійська
тип: пререндерні
формат: *.pgs
Info
General
Unique ID : 182703051510394798671557035101172158693 (0x897353E99E3BBCD99C13E6B994A650E5)
Complete name : E:\HDCLUB\Treasure.Island.2012.1080p.Bluray.Remux.Rus.Ukr.Eng.HDCLUB\BDMV\STREAM\Treasure Island (2012) [Ukr,Eng sub.Eng] Remux 1080p [Hurtom].
Format :
Format version : Version 4 / Version 2
File size : 21.0 GiB
Duration : 3 h 2 min
Overall bit rate mode : Variable
Overall bit rate : 16.5 Mb/s
Movie name : Treasure Island (2012) [Ukr,Eng sub.Eng] Remux 1080p [Hurtom]
Encoded date : UTC 2017-02-26 19:00:30
Writing application : mkvmerge v9.8.0 ('Kuglblids') 64bit
Writing library : libebml v1.3.4 + libmatroska v1.4.5

Video
ID : 1
Format : AVC
Format/Info : Advanced Video Codec
Format profile : [email protected]
Format settings, CABAC : Yes
Format settings, ReFrames : 3 frames
Format settings, GOP : M=3, N=12
Codec ID : V_MPEG4/ISO/AVC
Duration : 3 h 2 min
Bit rate mode : Variable
Bit rate : 14.3 Mb/s
Maximum bit rate : 29.9 Mb/s
Width : 1 920 pixels
Height : 1 080 pixels
Display aspect ratio : 16:9
Frame rate mode : Constant
Frame rate : 24.000 FPS
Standard : NTSC
Color space : YUV
Chroma subsampling : 4:2:0
Bit depth : 8 bits
Scan type : Progressive
Bits/(Pixel*Frame) : 0.287
Stream size : 18.2 GiB (87%)
Default : Yes
Forced : No
Color range : Limited
Color primaries : BT.709
Transfer characteristics : BT.709
Matrix coefficients : BT.709

Audio #1
ID : 2
Format : AC-3
Format/Info : Audio Coding 3
Mode extension : CM (complete main)
Format settings, Endianness : Big
Codec ID : A_AC3
Duration : 3 h 2 min
Bit rate mode : Constant
Bit rate : 192 kb/s
Channel(s) : 2 channels
Channel positions : Front: L R
Sampling rate : 48.0 kHz
Frame rate : 31.250 FPS (1536 spf)
Bit depth : 16 bits
Compression mode : Lossy
Stream size : 250 MiB (1%)
Language : Ukrainian
Default : Yes
Forced : Yes

Audio #2
ID : 3
Format :
Format/Info : Digital Theater Systems
Format profile : MA / Core
Mode : 16
Format settings, Endianness : Big
Codec ID : A_DTS
Duration : 3 h 2 min
Bit rate mode : Variable / Constant
Bit rate : 1 981 kb/s / 1 509 kb/s
Channel(s) : 6 channels
Channel positions : Front: L C R, Side: L R, LFE
Sampling rate : 48.0 kHz
Frame rate : 93.750 FPS (512 spf)
Bit depth : 16 bits
Compression mode : Lossless / Lossy
Stream size : 2.52 GiB (12%)
Default : No
Forced : No

Text
ID : 4
Format : PGS
Muxing mode : zlib
Codec ID : S_HDMV/PGS
Codec ID/Info : Picture based subtitle format used on BDs/HD-DVDs
Duration : 2 h 59 min
Bit rate : 20.1 kb/s
Count of elements : 4182
Stream size : 25.8 MiB (0%)
Default : No
Forced : No
Скріншоти



Запис з ТБ: MAKAPOHHIK, РОМЕО
Зведення _oles

Джерело: &
Особиста оцінка: 8 - мені сподобалося
Острів скарбів / Treasure Island (2012) Remux 1080p Ukr/Eng | Sub Eng


Острів скарбів / Treasure Island (2012) Remux 1080p Ukr/Eng | Sub Eng


Золотий реліз (завантажене не впливає на рейтинг)
 Трекер:    Зареєстрований   

Завантажити / скачати фільм українською



відео для новачків



 Зареєстрований:   2017-02-26 21:22
 Розмір:   21 GB 
 Оцінка фільму:   8.2/10 (Голосів: 9)
   
Інші релізи
   Острів скарбів / Treasure Island (2012) 1080p Ukr/Eng | Sub Eng AngryBirdsUA  2 / 0   10 GB   2014-05-18 19:52 
   Острів скарбів / Treasure Island (2012) AngryBirdsUA  10 / 0   2.9 GB   2014-05-18 19:26 
   Острів скарбів / Treasure Island (2012) AVC Ukr/Eng AngryBirdsUA  1 / 0   4.03 GB   2013-05-21 22:55 
zloydark 
Новенький


З нами з: 11.05.15
Востаннє: 17.12.17
Повідомлень: 21

2017-03-12 20:13  
фільм л***о - не варто трафіку
Ваш часовий пояс: GMT + 2 Години

Нова тема   Відповісти