Бетмен: Початок / Batman Begins (2005) Remux 1080p 2xUkr/Eng | Sub Eng

Нові коментарі

Нова тема   Відповісти
Автор Повідомлення
Argentum 
Свій


З нами з: 25.09.11
Востаннє: 18.10.17
Повідомлень: 83

2017-02-26 14:27  
Бетмен: Початок / Batman Begins (2005) Remux 1080p 2xUkr/Eng | Sub Eng

Бетмен: Початок / Batman Begins (2005) Remux 1080p 2xUkr/Eng | Sub Eng


Жанр: бойовик, пригодницький, трилер
Країна: США



Кінокомпанія: Warner Brothers, Legendary Pictures
Режисер: Крістофер Нолан
Актори: Крістіан Бейл, Майкл Кейн, Кеті Холмс, Лайам Нісон, Морган Фрімен

Сюжет:
Перший фільм з нового проекту - "перезавантаження" екранізацій про пригоди людини-кажана Бетмена: молодий мільйонер Брюс Вейн, який не може знайти сенс свого існування, потрапляє до китайської в'язниці, звідки його визволяє невідомий чоловік, котрий каже, що усі відповіді Брюс знайде на вершині гори. Замість відповідей Вейн знаходить там таємне товариство воїнів, яке очолює могутній лідер Рас-ал-Ґул. В очікуванні відповідей на свої питання Брюс проходить в товаристві вишкіл на непереможного бійця, після чого дізнається, що Рас-ал-Ґул збирається знищити його рідне місто Ґотем. В протиборстві з колишнім вчителем і народжується майбутня легенда Ґотема.


Тривалість: 02:20:02
Якість: Remux 1080p
Відео:
кодек: VC-1
розмір кадру: 1920 х 1080
бітрейт: 13692 кб/с

Аудіо # 1:
мова: українська
переклад: багатоголосий закадровий
кодек: 5.1
бітрейт: 384 кб/с

Аудіо # 2:
мова: українська
переклад: багатоголосий закадровий
кодек: 5.1
бітрейт: 448 кб/с

Аудіо # 3:
мова: англійська
переклад: оригінал
кодек: TrueHD 5.1
бітрейт: 1551 кб/с

Аудіо # 4:
мова: англійська
переклад: оригінал
кодек: 5.1
бітрейт: 640 кб/с

Субтитри:
мова: англійська
тип: пререндерні
формат: *.pgs
Info
General
Unique ID : 71151584460773838924437992084212342205 (0x35874BF535CD63AF40321B51D398DDBD)
Complete name : /home/jack/Videos/My/Batman/Batman Begins (2005) [Ukr, Eng] Remux 1080p [Hurtom].
Format :
Format version : Version 4 / Version 2
File size : 16.4 GiB
Duration : 2h 20mn
Overall bit rate mode : Variable
Overall bit rate : 16.8 Mbps
Movie name : Batman Begins (2005) - Release for HURTOM.COM
Encoded date : UTC 2017-08-21 18:26:58
Writing application : mkvmerge v15.0.0 ('Duel with the Devil') 64-bit
Writing library : libebml v1.3.5 + libmatroska v1.4.5
Attachments : 120127234404113685_f0_0.jpg

Video
ID : 1
Format : VC-1
Format profile : [email protected]
Codec ID : V_MS/VFW/FOURCC / WVC1
Codec ID/Hint : Microsoft
Duration : 2h 20mn
Bit rate : 13.7 Mbps
Width : 1 920 pixels
Height : 1 080 pixels
Display aspect ratio : 16:9
Frame rate mode : Constant
Frame rate : 23.976 (24000/1001) fps
Color space : YUV
Chroma subsampling : 4:2:0
Bit depth : 8 bits
Scan type : Progressive
Compression mode : Lossy
Bits/(Pixel*Frame) : 0.275
Stream size : 13.4 GiB (81%)
Title : VC-1 @ 13692 kbps
Default : Yes
Forced : No

Audio #1
ID : 2
Format : AC-3
Format/Info : Audio Coding 3
Mode extension : CM (complete main)
Format settings, Endianness : Big
Codec ID : A_AC3
Duration : 2h 20mn
Bit rate mode : Constant
Bit rate : 384 Kbps
Channel(s) : 6 channels
Channel positions : Front: L C R, Side: L R, LFE
Sampling rate : 48.0 KHz
Frame rate : 31.250 fps (1536 spf)
Compression mode : Lossy
Stream size : 385 MiB (2%)
Title : 5.1 @ 384 kbps - ICTV
Language : Ukrainian
Default : Yes
Forced : No

Audio #2
ID : 3
Format : AC-3
Format/Info : Audio Coding 3
Mode extension : CM (complete main)
Format settings, Endianness : Big
Codec ID : A_AC3
Duration : 2h 20mn
Bit rate mode : Constant
Bit rate : 448 Kbps
Channel(s) : 6 channels
Channel positions : Front: L C R, Side: L R, LFE
Sampling rate : 48.0 KHz
Frame rate : 31.250 fps (1536 spf)
Compression mode : Lossy
Stream size : 449 MiB (3%)
Title : 5.1 @ 448 kbps - K1
Language : Ukrainian
Default : No
Forced : No

Audio #3
ID : 4
Format : TrueHD
Codec ID : A_TRUEHD
Duration : 2h 20mn
Bit rate mode : Variable
Bit rate : 1 551 Kbps
Maximum bit rate : 3 267 Kbps
Channel(s) : 6 channels
Channel positions : Front: L C R, Side: L R, LFE
Sampling rate : 48.0 KHz
Frame rate : 1 200.000 fps (40 spf)
Compression mode : Lossless
Delay relative to video : 125ms
Stream size : 1.52 GiB (9%)
Title : TrueHD 5.1 @ 1551 kbps
Language : English
Default : No
Forced : No

Audio #4
ID : 5
Format : AC-3
Format/Info : Audio Coding 3
Mode extension : CM (complete main)
Format settings, Endianness : Big
Codec ID : A_AC3
Duration : 2h 20mn
Bit rate mode : Constant
Bit rate : 640 Kbps
Channel(s) : 6 channels
Channel positions : Front: L C R, Side: L R, LFE
Sampling rate : 48.0 KHz
Frame rate : 31.250 fps (1536 spf)
Compression mode : Lossy
Delay relative to video : 125ms
Stream size : 641 MiB (4%)
Title : AC-3 5.1 @ 640 kbps
Language : English
Default : No
Forced : No

Text
ID : 6
Format : PGS
Codec ID : S_HDMV/PGS
Codec ID/Info : Picture based subtitle format used on BDs/HD-DVDs
Duration : 2h 19mn
Bit rate : 28.1 Kbps
Count of elements : 2946
Stream size : 28.0 MiB (0%)
Language : English
Default : No
Forced : No
Скріншоти




Джерело: &
Особиста оцінка: 10 - без зайвих вагань рекомендую всім!


Золотий реліз (завантажене не впливає на рейтинг)
 Трекер:    Зареєстрований   

Завантажити / скачати фільм українською



відео для новачків



 Зареєстрований:   2017-08-21 22:52
 Розмір:   16.45 GB 
 Оцінка фільму:   9.4/10 (Голосів: 16)
   
Інші релізи
ifridus85 
Новенький


З нами з: 10.02.17
Востаннє: 17.10.17
Повідомлень: 7

2017-02-27 01:10  
Дякую за фільм! Наступних частин у такій же якості варто чекати?
Argentum 
Свій


З нами з: 25.09.11
Востаннє: 18.10.17
Повідомлень: 83

2017-02-27 02:22  
ifridus85 над другою частиною саме працюю, а третя вже є на толоці https://toloka.to/t41623
Argentum 
Свій


З нами з: 25.09.11
Востаннє: 18.10.17
Повідомлень: 83

2017-08-21 22:54  
Додав до torrent файла посилання на web-seed та замінив відеоряд на VC-1 з офіційного Blu-ray. Прохання перезавантажити роздачу.

ВАВУНЯ 
Свій


З нами з: 30.06.15
Востаннє: 17.10.17
Повідомлень: 142

2017-08-22 11:48  
Argentum
Цитата:
Додав до torrent файла посилання на web-seed та замінив відеоряд на VC-1 з офіційного Blu-ray.
для чого? О_о
Ваш часовий пояс: GMT + 2 Години

Нова тема   Відповісти