Фантастичні звірі і де їх шукати / Fantastic Beasts and Where to Find Them (2016) Remux 1080p Ukr/Eng | Sub Eng

Нові коментарі

Нова тема   Відповісти
Автор Повідомлення
staf777 
Відео Гуртом - підтримка та поширення
Відео Гуртом - підтримка та поширення


З нами з: 16.11.16
Востаннє: 25.05.19
Повідомлень: 2382

2017-02-26 14:22  
Фантастичні звірі і де їх шукати / Fantastic Beasts and Where to Find Them (2016) Remux 1080p Ukr/Eng | Sub Eng

Фантастичні звірі і де їх шукати / Fantastic Beasts and Where to Find Them (2016) Remux 1080p Ukr/Eng | Sub Eng
Оригінальна обкладинка

Фантастичні звірі і де їх шукати / Fantastic Beasts and Where to Find Them (2016) Remux 1080p Ukr/Eng | Sub Eng
Жанр: пригоди, сімейний, фентезі
Країна: США, Велика Британія



Кінокомпанія: Warner Bros., Heyday Films
Режисер: Девід Йетс
Актори: Едді Редмейн, Кетрін Вотерстон, Ден Фоґлер, Езра Міллер, Саманта Мортон, Колін Фаррелл, Кармен Еджоґо, Рон Перлман, Джон Войт

Сюжет:
Нью-Йорк 20-х років ХХ століття. Головний герой – Ньют Скамандер, який приїхав в місто спеціально для того, щоб відвідати секретну спільноту чарівниць та чарівників. Він – відомий дослідник і письменник, а підручники його авторства входять до обов'язкової програми Хогвартсу – знаменитої школи магії. Саме про підручник " Фантастичні звірі і де їх шукати" нам розповідає фільм. Ця книга є переліком фантастичних тварин і містить їх опис. Пориньте у цей чарівний світ!


Тривалість: 02:12:52
Якість: Remux 1080p
Відео:
кодек:
розмір кадру: 1920x1080
бітрейт: 21,8 Mб/с

Аудіо # 1:
мова: українська
переклад: професійний дубльований
кодек: 2.0
бітрейт: 192 кб/с

Аудіо # 2:
мова: англійська
переклад: оригінал
кодек: TrueHD 7.1
бітрейт: 3951 кб/с

Субтитри # 1 (Forced):
мова: українська
тип: програмні (м'які)
формат: *.srt

Субтитри # 2:
мова: англійська (SDH)
тип: програмні (м'які)
формат: *.srt
Info
General
Unique ID : 239242393817327294757550513341489037452 (0xB3FC68B5A9E579009831755C9905408C)
Complete name : P:\RUTrecker\Fantastic Beasts and Where to Find Them (2016) [Ukr,Eng sub.Eng] Remux 1080p [Hurtom].
Format :
Format version : Version 4 / Version 2
File size : 24.1 GiB
Duration : 2 h 12 min
Overall bit rate mode : Variable
Overall bit rate : 26.0 Mb/s
Movie name : Fantastic Beasts and Where to Find Them (2016) [Ukr,Eng sub.Eng] Remux 1080p [Hurtom]
Encoded date : UTC 2017-02-27 08:44:04
Writing application : v9.8.0 ('Kuglblids') 64bit
Writing library : libebml v1.3.4 + v1.4.5
Cover : Yes
Attachments : cover.jpg

Video
ID : 1
Format : AVC
Format/Info : Advanced Video Codec
Format profile : [email protected]
Format settings, CABAC : Yes
Format settings, ReFrames : 4 frames
Codec ID : V_MPEG4/ISO/AVC
Duration : 2 h 12 min
Bit rate mode : Variable
Bit rate : 21.8 Mb/s
Maximum bit rate : 28.0 Mb/s
Width : 1 920 pixels
Height : 1 080 pixels
Display aspect ratio : 16:9
Frame rate mode : Constant
Frame rate : 23.976 (24000/1001) FPS
Color space : YUV
Chroma subsampling : 4:2:0
Bit depth : 8 bits
Scan type : Progressive
Bits/(Pixel*Frame) : 0.439
Stream size : 20.2 GiB (84%)
Language : English
Default : Yes
Forced : No

Audio #1
ID : 2
Format : AC-3
Format/Info : Audio Coding 3
Mode extension : CM (complete main)
Format settings, Endianness : Big
Codec ID : A_AC3
Duration : 2 h 12 min
Bit rate mode : Constant
Bit rate : 192 kb/s
Channel(s) : 2 channels
Channel positions : Front: L R
Sampling rate : 48.0 kHz
Frame rate : 31.250 FPS (1536 spf)
Bit depth : 16 bits
Compression mode : Lossy
Stream size : 182 MiB (1%)
Language : Ukrainian
Default : Yes
Forced : Yes

Audio #2
ID : 3
Format : Atmos / TrueHD
Codec ID : A_TRUEHD
Duration : 2 h 12 min
Bit rate mode : Variable
Bit rate : 3 951 kb/s
Maximum bit rate : 7 563 kb/s
Channel(s) : Object Based / 8 channels
Channel positions : Object Based / Front: L C R, Side: L R, Back: L R, LFE
Sampling rate : / 48.0 kHz
Frame rate : 1 200.000 FPS (40 spf)
Compression mode : Lossless
Stream size : 3.67 GiB (15%)
Title : Original
Language : English
Default : No
Forced : No

Text #1
ID : 4
Format : UTF-8
Codec ID : S_TEXT/UTF8
Codec ID/Info : UTF-8 Plain Text
Duration : 2 h 2 min
Bit rate : 2 b/s
Count of elements : 40
Stream size : 2.37 KiB (0%)
Title : Forced
Language : Ukrainian
Default : Yes
Forced : Yes

Text #2
ID : 5
Format : UTF-8
Codec ID : S_TEXT/UTF8
Codec ID/Info : UTF-8 Plain Text
Duration : 2 h 11 min
Bit rate : 44 b/s
Count of elements : 1595
Stream size : 43.1 KiB (0%)
Title : SDH
Language : English
Default : No
Forced : No

Menu
00:00:00.000 : :Chapter 1
00:08:40.394 : :Chapter 2
00:18:55.843 : :Chapter 3
00:28:23.785 : :Chapter 4
00:38:34.312 : :Chapter 5
00:48:08.719 : :Chapter 6
00:58:19.370 : :Chapter 7
01:09:14.817 : :Chapter 8
01:17:26.516 : :Chapter 9
01:29:33.785 : :Chapter 10
01:38:02.209 : :Chapter 11
01:50:27.996 : :Chapter 12
01:59:04.595 : :Chapter 13
02:04:12.069 : :Chapter 14
Скріншоти





За українську доріжку подяка пану Covenant, синхронізація та субтитри- Electroz
Джерело: &
Особиста оцінка: 8 - мені сподобалося
Фантастичні звірі і де їх шукати / Fantastic Beasts and Where to Find Them (2016) Remux 1080p Ukr/Eng | Sub Eng


Фантастичні звірі і де їх шукати / Fantastic Beasts and Where to Find Them (2016) Remux 1080p Ukr/Eng | Sub Eng


Золотий реліз (завантажене не впливає на рейтинг)
 Трекер:    Зареєстрований   

Завантажити / скачати фільм українською



відео для новачків



 Зареєстрований:   2017-03-09 12:45
 Розмір:   24.15 GB 
 Оцінка фільму:   9.3/10 (Голосів: 69)
   
Інші релізи
   Фантастичні звірі і де їх шукати / Fantastic Beasts and Where to Find Them (2016) UHD Remux 2160p 4K HDR H.265 Ukr/Eng | Sub Ukr/Eng Argentum  0 / 2   47.88 GB   2019-04-01 13:32 
   Фантастичні звірі і де їх шукати / Fantastic Beasts and Where to Find Them (2016) 1080p H.265 Ukr/Eng | Sub Ukr/Eng igor302  45 / 0   4.88 GB   2018-03-16 23:17 
   Фантастичні звірі і де їх шукати / Fantastic Beasts and Where to Find Them (2016) Ukr 5.1| Sub Uk srtr Bochys  1 / 0   426 MB   2017-11-02 11:56 
   Фантастичні звірі і де їх шукати / Fantastic Beasts and Where to Find Them (2016) DVD9 Eng/Cz/Rus/Ukr | Sub Eng/Cz/Est/Latv/Lith/Port/Rus/Ukr Bochys  6 / 0   6.55 GB   2017-10-30 13:03 
   Фантастичні звірі і де їх шукати / Fantastic Beasts and Where to Find Them (2016) 1080p 3D [Half OverUnder] Ukr/Eng | Sub Eng igor911  4 / 4   13.52 GB   2017-03-24 22:28 
   Фантастичні звірі і де їх шукати / Fantastic Beasts and Where to Find Them (2016) 720p-mini (60 fps) Drool  24 / 0   3.65 GB   2017-03-09 17:13 
   Фантастичні звірі і де їх шукати / Fantastic Beasts and Where to Find Them (2016) 1080p Ukr/Eng | Sub Eng Electroz  22 / 1   14.29 GB   2017-03-08 15:28 
   Фантастичні звірі і де їх шукати / Fantastic Beasts and Where to Find Them (2016) Covenant  41 / 4   1.45 GB   2017-03-08 14:50 
   Фантастичні звірі і де їх шукати / Fantastic Beasts and Where to Find Them (2016) 720p Ukr/Eng | Sub Eng 11FrYkT  17 / 0   5.76 GB   2017-03-08 13:23 
   Фантастичні звірі і де їх шукати / Fantastic Beasts and Where to Find Them (2016) AVC Ukr/Eng | Sub Eng 11FrYkT  27 / 0   2.18 GB   2017-03-08 13:09 
   Фантастичні звірі і де їх шукати / Fantastic Beasts and Where to Find Them (2016) Ukr/Eng Gelios  13 / 1   2.18 GB   2017-03-08 12:44 
Sexy_Beast 
Новенький


З нами з: 18.02.17
Востаннє: 24.05.19
Повідомлень: 23

2017-02-27 14:02  
Круто! Дякую за оперативність!
vash1 
Поважний учасник


З нами з: 16.03.16
Востаннє: 23.05.19
Повідомлень: 194

2017-02-27 20:34  
файно! дубляж - line?

Додано через 1 хвилину 22 секунди:

позолотити плануєте?

OL3X 
VIP


З нами з: 25.11.15
Востаннє: 22.05.19
Повідомлень: 439

2017-02-27 21:35  
В кінотеатрі були локалізовані іконки в самому відеоряді, в нас такого не планується?
hightwest 
Новенький


З нами з: 02.10.15
Востаннє: 21.05.19
Повідомлень: 5

2017-02-28 22:12  
Дякую,дякую, i ще раз дякую...зараз подивимось :3
WalterRay 
Новенький


З нами з: 05.08.13
Востаннє: 21.05.19
Повідомлень: 18

2017-03-06 16:28  
Дякую за роздачу!
Об'ємний український звук буде?

igor911 
Модератор відео


З нами з: 18.01.08
Востаннє: 25.05.19
Повідомлень: 12540

2017-03-06 16:30  
WalterRay, ні, швидше за все буде лише стерео з айтюнсу в кращому випадку. https://toloka.to/t78349
taurus 
Свій


З нами з: 04.04.11
Востаннє: 24.05.19
Повідомлень: 88

2017-03-07 09:35  
Вибачте, проте дивитися такий фільм зі стереозвуком - блюзнірство. Краще вже англійською з субтитрами (яких також нема).
igor911 
Модератор відео


З нами з: 18.01.08
Востаннє: 25.05.19
Повідомлень: 12540

2017-03-07 09:36  
taurus написано:
з субтитрами

українських субтитрів немає.

staf777 
Відео Гуртом - підтримка та поширення
Відео Гуртом - підтримка та поширення


З нами з: 16.11.16
Востаннє: 25.05.19
Повідомлень: 2382

2017-03-09 12:47  
09.03.2017 Роздачу оновлено Замінив звук з
andriy_tymofiy 
Новенький


З нами з: 30.03.17
Востаннє: 30.03.17
Повідомлень: 1

2017-03-30 21:07  
Sexy_Beast
файно дякую!!!

ВАВУНЯ 
Поважний учасник


З нами з: 30.06.15
Востаннє: 22.05.19
Повідомлень: 248

2017-03-30 21:29  
стрічка зовсім не сподобалась. Sad (1)
і більш за все неприємний і "дебілкуватий" на вигляд головний герой.

Uberwinder 
VIP


З нами з: 18.11.16
Востаннє: 25.05.19
Повідомлень: 277

2017-05-25 06:51  
Є відчуття що далі буде Гарі Поттер проти фантастичних звірів)))
taurus 
Свій


З нами з: 04.04.11
Востаннє: 24.05.19
Повідомлень: 88

2017-07-18 07:15  
Дуже цікава стрічка, яку з допотопним стереозвуком дивитися просто смішно. При тому, що український переклад чудовий (якісніший за російський) і просторові звукові ефекти також вражають (дивився в IMAX).
Ваш часовий пояс: GMT + 2 Години

Нова тема   Відповісти