Перехрестя Десятої і Вульф / 10th & Wolf (2006) 720p Ukr/Eng | Sub Eng

Нові коментарі

Нова тема   Відповісти
Автор Повідомлення
staf777 
Відео Гуртом - підтримка та поширення
Відео Гуртом - підтримка та поширення


З нами з: 16.11.16
Востаннє: 06.11.17
Повідомлень: 522

2017-02-26 12:28  
Перехрестя Десятої і Вульф / 10th & Wolf (2006) 720p Ukr/Eng | Sub Eng

Альтернативні постери
http://s2.share.te.ua/b281082/movieposter.jpg - великий постер



Слоган: «Where an ounce of blood is worth more than a pound of friendship ...»


Жанр: комедія, кримінальний, містерія, трилер
Країна: США



Кіностудія / кінокомпанія: Suzanne DeLaurentiis Productions
Режисер: Роберт Мореско (Robert Moresco)
Актори: Джеймс Марсден (James Marsden), Брайан Деннехі (Brian Dennehy), Лео Россі (Leo Rossi), Деніс Гопер (Dennis Hopper), Тоні Люк мол. (Tony Luke Jr.), Джон Каподік (John Capodice), Біллі Галло (Billy Gallo), Кен Гаріто (Ken Garito), Деш Міхок (Dash Mihok), Бред Ренфро (Brad Renfro), Джованні Рібізі (Giovanni Ribisi), Роуз Россі (Rose Rossi), Джеймс Грімальді (James Grimaldi), Патрік Джордан (Patrick Jordan), Ігор Де Лаурентііс (Igor De Laurentiis), Джо Пістон (Joe Pistone), Пайпер Перабо (Piper Perabo), Леслі Енн Уоррен (Lesley Ann Warren), Джеффрі Тотт (Jeffrey Tott), Беррі Сігізмонді (Barry Sigismondi), Мічіллін Арві (Michilline Arvie), Сонні Марінеллі (Sonny Marinelli), Томмі Лі (Tommy Lee), Джуд Мореско (Jude Moresco), Коріна Марі (Corina Marie), Аманда Мореско (Amanda Moresco), Вел Кілмер (Val Kilmer), Брайан Томас (Brian Thomas), Дорін Данлеп (Doreen Dunlap), Джей Ер Касія (JR Cacia), Франческо Сальві (Francesco Salvi), Ден Тревеліно (Dan Trevelino), Джейсон Коллінз (Jason Collins), Вероніка Де Лаурентііс (Veronica De Laurentiis), Ларрі Демме (Larry Demm), Патрік Бреннан (Patrick Brennan), Трентон Рупехт (Trenton Rupecht), Джеймс Хіпхі (James Heaphy), Пол Розенбаум (Paul Rosenbaum), Френк Сісто (Frank Sisto), Даніель М. Вхолей (Daniel M. Wholey), Тоні Девон (Tony Devon), Джоні Лігато (Johnny Ligato), Тоні Амен (Tony Amen), Джоі Бумботз (Joey Boombotze), Джеффрі Джонс (Jeffrey Jones), Джаред Уорд (Jared Ward), Аарон Бернард (Aaron Bernard), Маргот Боекер (Margot Boecker), Аттікус Кейн (Atticus Cain), Франк Кордек (Frank Cordek), Джон Дональдсон (John Donaldson), Джессі Галліон (Jesse Gullion), Ніколь Хоррел (Nickole Horrell), Джон В. Іванонків (John W. Iwanonkiw), Піт Лендіс (Pete Landis), Мерітт Латімор (Meritt Latimore), Девід Морс (David Morse), Шон О'Доннелл (Shaun O'Donnell), Бен О'Рурк (Ben O'Rourke), Патрік Кернан Куїнн (Patrick Kernan Quinn), Джейсон Шеппард (Jason Sheppard), Інгрід Соннічсен (Ingrid Sonnichsen), Сонні Веллоззі (Sonny Vellozzi)

Сюжет:
Томмі був ще дитиною, коли вбили його батька, одного з ватажків мафії Філадельфії. Його брат і кузен залишаються вірні «сімейній справі», але сам Томмі вирішує зав'язати зі своїм минулим і йде служити в армію.

Коли через конфлікт з командуванням йому загрожує військовий трибунал, агенти ФБР в обмін на свободу пропонують йому повернутися в злочинний бізнес і стати таємним інформатором. Томмі належить зробити найважчий вибір: або піти проти закону, або зрадити брата і друга ...


Бюджет: 8 000 000 доларів
Збори в США: 54 702 долари
Збори у світі: 143 451 долар
Назва фільму у інших країнах
Crimenes paralelos
Аргентина (Відео назва)


Entre la decima con Wolf
Іспанія (Назва на DVD)


Esquina da Morte
Бразилія


For Life
США (робоча назва)


O Bairro da Mafia
Португалія


Streets of Philadelphia - Unter Verratern
Німеччина


To karfi
Греція


Undercover
Данія (Назва на TV)


Veres utcak
Угорщина


Пересечение 10-й и Вульф / Десятый и Волк
Росія
Тривалість: 01:43:51
Якість: 720p
Відео:
кодек:
розмір кадру:1280x544
бітрейт: 6451 кб/с

Аудіо #1:
мова: українська
переклад: багатоголосий закадровий
кодек: 2.0
бітрейт: 192 кб/с
озвучено: Студія Мова на замовлення

Аудіо #2:
мова: англійська
переклад: оригінал
кодек: 5.1
бітрейт: 448 кб/с

Субтитри:
мова: англійська
тип: програмні (м'які)
формат: *.srt

Скріншоти:





MI:
Код:

General
Unique ID                                : 192095005383993879058859108279491933784 (0x908426FD5ED534C0BF2AB4AEDBBEB658)
Complete name                            : P:\HD українською » Фільми в HD\Трилер\10th & Wolf (2006) [Ukr,Eng sub.Eng] 720p [Hurtom].
Format                                   :
Format version                           : Version 4 / Version 2
File size                                : 5.14 GiB
Duration                                 : 1 h 43 min
Overall bit rate                         : 7 086 kb/s
Movie name                               : 10th & Wolf (2006) [Ukr,Eng sub.Eng] 720p [Hurtom]
Encoded date                             : UTC 2017-02-26 10:35:29
Writing application                      : mkvmerge v9.8.0 ('Kuglblids') 64bit
Writing library                          : libebml v1.3.4 + libmatroska v1.4.5

Video
ID                                       : 1
Format                                   : AVC
Format/Info                              : Advanced Video Codec
Format profile                           : [email protected]
Format settings, CABAC                   : Yes
Format settings, ReFrames                : 12 frames
Codec ID                                 : V_MPEG4/ISO/AVC
Duration                                 : 1 h 43 min
Bit rate                                 : 6 451 kb/s
Width                                    : 1 280 pixels
Height                                   : 544 pixels
Display aspect ratio                     : 2.35:1
Frame rate mode                          : Constant
Frame rate                               : 25.000 FPS
Color space                              : YUV
Chroma subsampling                       : 4:2:0
Bit depth                                : 8 bits
Scan type                                : Progressive
Bits/(Pixel*Frame)                       : 0.371
Stream size                              : 4.67 GiB (91%)
Writing library                          : core 125 r2200 999b753
Encoding settings                        : cabac=1 / ref=12 / deblock=1:-3:-3 / analyse=0x3:0x133 / me=umh / subme=11 / psy=1 / psy_rd=1.05:0.00 / mixed_ref=1 / me_range=48 / chroma_me=1 / trellis=2 / 8x8dct=1 / cqm=0 / deadzone=21,11 / fast_pskip=0 / chroma_qp_offset=-2 / threads=12 / lookahead_threads=2 / sliced_threads=0 / nr=0 / decimate=1 / interlaced=0 / bluray_compat=0 / constrained_intra=0 / bframes=9 / b_pyramid=2 / b_adapt=2 / b_bias=0 / direct=3 / weightb=1 / open_gop=0 / weightp=2 / keyint=250 / keyint_min=23 / scenecut=40 / intra_refresh=0 / rc_lookahead=40 / rc=2pass / mbtree=0 / bitrate=6451 / ratetol=1.0 / qcomp=0.60 / qpmin=0 / qpmax=69 / qpstep=4 / cplxblur=20.0 / qblur=0.5 / vbv_maxrate=62500 / vbv_bufsize=78125 / nal_hrd=none / ip_ratio=1.40 / pb_ratio=1.30 / aq=1:0.80
Language                                 : English
Default                                  : Yes
Forced                                   : No

Audio #1
ID                                       : 2
Format                                   : AC-3
Format/Info                              : Audio Coding 3
Mode extension                           : CM (complete main)
Format settings, Endianness              : Big
Codec ID                                 : A_AC3
Duration                                 : 1 h 43 min
Bit rate mode                            : Constant
Bit rate                                 : 192 kb/s
Channel(s)                               : 2 channels
Channel positions                        : Front: L R
Sampling rate                            : 48.0 kHz
Frame rate                               : 31.250 FPS (1536 spf)
Bit depth                                : 16 bits
Compression mode                         : Lossy
Stream size                              : 143 MiB (3%)
Title                                    : UA-MVO
Language                                 : Ukrainian
Default                                  : Yes
Forced                                   : Yes

Audio #2
ID                                       : 3
Format                                   : AC-3
Format/Info                              : Audio Coding 3
Mode extension                           : CM (complete main)
Format settings, Endianness              : Big
Codec ID                                 : A_AC3
Duration                                 : 1 h 43 min
Bit rate mode                            : Constant
Bit rate                                 : 448 kb/s
Channel(s)                               : 6 channels
Channel positions                        : Front: L C R, Side: L R, LFE
Sampling rate                            : 48.0 kHz
Frame rate                               : 31.250 FPS (1536 spf)
Bit depth                                : 16 bits
Compression mode                         : Lossy
Stream size                              : 333 MiB (6%)
Language                                 : English
Default                                  : No
Forced                                   : No

Text
ID                                       : 4
Format                                   : UTF-8
Codec ID                                 : S_TEXT/UTF8
Codec ID/Info                            : UTF-8 Plain Text
Duration                                 : 1 h 36 min
Bit rate                                 : 51 b/s
Count of elements                        : 1287
Stream size                              : 36.7 KiB (0%)
Language                                 : English
Default                                  : No
Forced                                   : No

Menu
00:00:00.000                             : :00:00:00.000
00:20:00.000                             : :00:20:00.000
00:40:00.000                             : :00:40:00.000
01:00:00.000                             : :01:00:00.000
01:15:00.000                             : :01:15:00.000
01:30:00.000                             : :01:30:00.000

ПодякИ:

Пану Merdiff за запис звуку з ТБ та п.urij546724 за зведення


Джерело: &
Особиста оцінка: 8 - мені сподобалося
Перехрестя Десятої і Вульф / 10th & Wolf (2006) 720p Ukr/Eng | Sub Eng


Перехрестя Десятої і Вульф / 10th & Wolf (2006) 720p Ukr/Eng | Sub Eng


 Трекер:    Зареєстрований   

Завантажити / скачати фільм українською



відео для новачків



 Зареєстрований:   2017-02-26 13:11
 Розмір:   5.14 GB 
 Оцінка фільму:   10/10 (Голосів: 1)
   
Інші релізи
Ваш часовий пояс: GMT + 2 Години

Нова тема   Відповісти