Армійський пиріг / Achtung, Fertig, Charlie! (2003) 720p Ukr/Ger | sub Fra/Eng

Нові коментарі

Нова тема   Відповісти
Останній раз роздавалося andrew_laser (2017-09-17)
Автор Повідомлення
staf777 
Відео Гуртом - підтримка та поширення
Відео Гуртом - підтримка та поширення


З нами з: 16.11.16
Востаннє: 11.09.17
Повідомлень: 522

2017-02-25 21:03  
Армійський пиріг / Achtung, Fertig, Charlie! (2003) 720p Ukr/Ger | sub Fra/Eng

Армійський пиріг / Achtung, Fertig, Charlie! (2003) 720p Ukr/Ger | sub Fra/Eng
Оригінальна обкладинка

Армійський пиріг / Achtung, Fertig, Charlie! (2003) 720p Ukr/Ger | sub Fra/Eng
Жанр: комедія, романтичний
Країна: Швейцарія



Кінокомпанія: Zodiac Pictures International
Режисер: Майк Ешманн (Mike Eschmann)
Актори: Міхаель Кох (Michael Koch), Мелані Вінгер (Melanie Winiger), Марко Ріма (Marco Rima), Міа Агертер (Mia Aegerter), Мартін Раполд (Martin Rapold)

Сюжет:
Військовий обов'язок — над усе. Це і довелося випробувати красеневі Антоніо в найголовніший день свого життя, коли він повів до вівтаря дівчину своєї мрії. У той самий момент з'явилися посланці Міністерства Оборони і під конвоєм доставили бідолаху-нареченого прямо у фраку на призовний пункт. Капітан радо потирає руки і злорадіє в передчутті «великих маневрів». А вижити допоможуть лише бойові товариші, серед яких переконаний пацифіст, симпатичний гей, успішний плейбой, великий експериментатор в області травичок, пігулок і іншої дурманної нісенітниці, серед об'єктів бажання яких — не лише жінки, але і обігрівальні прилади. Ну і, звичайно, чарівні товаришки по службі, що добровільно встали «під рушницю», але замість зброї отримали почесне право дути в тромбон на ранкових шикуваннях. Всі спроби невдалого нареченого з'єднатися з коханою незмінно завершуються гауптвахтою. Єдиний спосіб бути відрахованим з учебки — спокусити дочку командира Мішель, але підступний план дає збій.


Тривалість: 01:31:36
Якість: 720p
Відео:
кодек:
розмір кадру: 1280x694
бітрейт: 7175 кб/с

Аудіо # 1:
мова: українська
переклад: двоголосий закадровий
кодек: 2.0
бітрейт: 192 кб/с

Аудіо # 2:
мова: німецька
переклад: оригінал
кодек: 5.1
бітрейт: 1509 кб/с

Субтитри #1-2:
мова: французька, англійська
тип: програмні (м'які)
формат: *.srt
Info
General
Unique ID : 197285669791374152165213805599719852973 (0x946BD680F0AB380099EDA44BC6BE8BAD)
Complete name : P:\HD українською » Фільми в HD\Комедія\Achtung, fertig, Charlie! (2003) [Ukr,Ger sub.Fra,Eng] 720p [Hurtom].
Format :
Format version : Version 4 / Version 2
File size : 5.68 GiB
Duration : 1 h 31 min
Overall bit rate : 8 879 kb/s
Movie name : Achtung, fertig, Charlie! (2003) [Ukr,Ger sub.Fra,Eng] 720p [Hurtom]
Encoded date : UTC 2017-02-26 06:56:52
Writing application : mkvmerge v9.8.0 ('Kuglblids') 64bit
Writing library : libebml v1.3.4 + libmatroska v1.4.5

Video
ID : 1
Format : AVC
Format/Info : Advanced Video Codec
Format profile : [email protected]
Format settings, CABAC : Yes
Format settings, ReFrames : 9 frames
Codec ID : V_MPEG4/ISO/AVC
Duration : 1 h 31 min
Bit rate : 7 175 kb/s
Width : 1 280 pixels
Height : 694 pixels
Display aspect ratio : 1.85:1
Frame rate mode : Constant
Frame rate : 23.976 (24000/1001) FPS
Color space : YUV
Chroma subsampling : 4:2:0
Bit depth : 8 bits
Scan type : Progressive
Bits/(Pixel*Frame) : 0.337
Stream size : 4.59 GiB (81%)
Writing library : core 125 r2200 999b753
Encoding settings : cabac=1 / ref=9 / deblock=1:-3:-3 / analyse=0x3:0x133 / me=umh / subme=11 / psy=1 / psy_rd=1.05:0.00 / mixed_ref=1 / me_range=48 / chroma_me=1 / trellis=2 / 8x8dct=1 / cqm=0 / deadzone=21,11 / fast_pskip=0 / chroma_qp_offset=-2 / threads=12 / lookahead_threads=2 / sliced_threads=0 / nr=0 / decimate=1 / interlaced=0 / bluray_compat=0 / constrained_intra=0 / bframes=9 / b_pyramid=2 / b_adapt=2 / b_bias=0 / direct=3 / weightb=1 / open_gop=0 / weightp=2 / keyint=250 / keyint_min=23 / scenecut=40 / intra_refresh=0 / rc_lookahead=40 / rc=crf / mbtree=0 / crf=16.6 / qcomp=0.60 / qpmin=0 / qpmax=69 / qpstep=4 / vbv_maxrate=62500 / vbv_bufsize=78125 / crf_max=0.0 / nal_hrd=none / ip_ratio=1.40 / pb_ratio=1.30 / aq=1:0.80
Language : German
Default : Yes
Forced : No

Audio #1
ID : 2
Format : AC-3
Format/Info : Audio Coding 3
Mode extension : CM (complete main)
Format settings, Endianness : Big
Codec ID : A_AC3
Duration : 1 h 31 min
Bit rate mode : Constant
Bit rate : 192 kb/s
Channel(s) : 2 channels
Channel positions : Front: L R
Sampling rate : 48.0 kHz
Frame rate : 31.250 FPS (1536 spf)
Bit depth : 16 bits
Compression mode : Lossy
Stream size : 126 MiB (2%)
Title : UA-DVO
Language : Ukrainian
Default : Yes
Forced : Yes

Audio #2
ID : 3
Format :
Format/Info : Digital Theater Systems
Mode : 16
Format settings, Endianness : Big
Codec ID : A_DTS
Duration : 1 h 31 min
Bit rate mode : Constant
Bit rate : 1 509 kb/s
Channel(s) : 6 channels
Channel positions : Front: L C R, Side: L R, LFE
Sampling rate : 48.0 kHz
Frame rate : 93.750 FPS (512 spf)
Bit depth : 24 bits
Compression mode : Lossy
Stream size : 989 MiB (17%)
Language : German
Default : No
Forced : No

Text #1
ID : 4
Format : UTF-8
Codec ID : S_TEXT/UTF8
Codec ID/Info : UTF-8 Plain Text
Duration : 1 h 27 min
Bit rate : 50 b/s
Count of elements : 909
Stream size : 32.5 KiB (0%)
Language : French
Default : No
Forced : No

Text #2
ID : 5
Format : UTF-8
Codec ID : S_TEXT/UTF8
Codec ID/Info : UTF-8 Plain Text
Duration : 1 h 27 min
Bit rate : 46 b/s
Count of elements : 905
Stream size : 29.9 KiB (0%)
Language : English
Default : No
Forced : No

Menu
00:00:00.000 : :00:00:00.000
00:09:23.980 : :00:09:23.980
00:19:24.997 : :00:19:24.997
00:29:22.218 : :00:29:22.218
00:41:01.417 : :00:41:01.417
00:49:24.211 : :00:49:24.211
00:58:58.618 : :00:58:58.618
01:08:06.874 : :01:08:06.874
01:21:51.615 : :01:21:51.615
01:28:19.752 : :01:28:19.752
Скріншоти



Джерело: &
Особиста оцінка: 8 - мені сподобалося
Армійський пиріг / Achtung, Fertig, Charlie! (2003) 720p Ukr/Ger | sub Fra/Eng


Армійський пиріг / Achtung, Fertig, Charlie! (2003) 720p Ukr/Ger | sub Fra/Eng


Срібний реліз (на рейтинг впливає 50% завантаженого)
 Трекер:    Зареєстрований   

Завантажити / скачати фільм українською



відео для новачків



 Зареєстрований:   2017-02-26 10:17
 Розмір:   5.68 GB 
 Оцінка фільму:   9/10 (Голосів: 1)
   
Інші релізи
   Армійський пиріг / Achtung, Fertig, Charlie! (2003) Givi  1 / 0   1.36 GB   2010-06-29 07:19 
Ваш часовий пояс: GMT + 2 Години

Нова тема   Відповісти