Хребет диявола / El espinazo del diablo / The Devil's Backbone (2001) 720p Ukr/Esp | Sub Ukr/Esp

Нові коментарі

Нова тема   Відповісти
Автор Повідомлення
staf777 
Відео Гуртом - підтримка та поширення
Відео Гуртом - підтримка та поширення


З нами з: 16.11.16
Востаннє: 22.10.17
Повідомлень: 522

2017-02-25 18:16  
Хребет диявола / El espinazo del diablo / The Devil's Backbone (2001) 720p Ukr/Esp | Sub Ukr/Esp

Хребет диявола / El espinazo del diablo / The Devil's Backbone (2001) 720p Ukr/Esp | Sub Ukr/Esp


Жанр: драма, жахи
Країна: Іспанія, Мексика



Кінокомпанія: El Deseo S.A., Tequila Gang, Sogepaq
Режисер: Ґільєрмо Дель Торо / Guillermo Del Toro
Актори: Маріса Паредес / Marisa Paredes, Едуардо Нор'єґа / Eduardo Noriega, Фредеріко Луппі / Federico Luppi, Фернандо Телве / Fernando Tielve, Ініґо Ґарсес / Íñigo Garcés, Ірен Віседо / Irene Visedo, Хосе Мануель Лоренцо / José Manuel Lorenzo, Франціско Маестре / Francisco Maestre, Хуніо Вальверде / Junio Valverde, Берта Охеа / Berta Ojea

Сюжет:
Дія фільму відбувається під час громадянської війни в Іспанії. Дванадцятирічний Карлос потрапляє до сирітського притулку, де стикається із таємничим привидом хлопчика Санті. Привид переслідує Карлоса, проте не відкриває своєї таємниці.
Паралельно з цими пригодами у притулку розгортається правдива драма за участі дорослих. Тут вирують воістину іспанські пристрасті, сповнені ревнощів, ненависти та жадоби золота. У фіналі картини дві лінії зійдуться, аби по-своєму звершити сюжет.
«Хребет диявола» став першою частиною трилогії про громадянську війну в Іспанії, яку Дель Торо вважає «останнім романтичним місцем, де відбулася війна з фашизмом». І прикметно, що це війна не тільки на рівні фізичному, реальному, побутовому, але й на метафізичному також.


Тривалість: 01:47:50
Якість: 720p
Відео:
кодек:
розмір кадру: 1280x692
бітрейт: 8964 кб/с

Аудіо # 1:
мова:українська
переклад: двоголосий закадровий | Студія "Кіт"
кодек: 2.0
бітрейт: 192 кб/с

Аудіо # 2:
мова: іспанська
переклад: оригінал
кодек: 5.1
бітрейт: 640 кб/с

Субтитри:
мова: українська
тип: програмні (м'які)
формат: *.srt

Субтитри:
мова: іспанська
тип: програмні (м'які)
формат: *.srt
Info
General
Unique ID : 191814385781892570742063673405680237985 (0x904E1B60097CA8B1A2FEE7BBE74DBDA1)
Complete name : P:\HD українською » Фільми в HD\Жахи\The Devil's Backbone (2001) [Ukr,Esp sub.Ukr,Esp] 720p [Hurtom].
Format :
Format version : Version 4 / Version 2
File size : 7.38 GiB
Duration : 1 h 47 min
Overall bit rate : 9 798 kb/s
Movie name : The Devil's Backbone (2001) [Ukr,Esp sub.Ukr,Esp] 720p [Hurtom]
Encoded date : UTC 2017-02-26 06:20:59
Writing application : mkvmerge v9.8.0 ('Kuglblids') 64bit
Writing library : libebml v1.3.4 + libmatroska v1.4.5
Cover : Yes
Attachments : cover.jpg

Video
ID : 1
Format : AVC
Format/Info : Advanced Video Codec
Format profile : [email protected]
Format settings, CABAC : Yes
Format settings, ReFrames : 9 frames
Codec ID : V_MPEG4/ISO/AVC
Duration : 1 h 47 min
Bit rate : 8 964 kb/s
Width : 1 280 pixels
Height : 692 pixels
Display aspect ratio : 1.85:1
Frame rate mode : Constant
Frame rate : 23.976 (24000/1001) FPS
Color space : YUV
Chroma subsampling : 4:2:0
Bit depth : 8 bits
Scan type : Progressive
Bits/(Pixel*Frame) : 0.422
Stream size : 6.75 GiB (91%)
Writing library : core 135 r2345 f0c1c53
Encoding settings : cabac=1 / ref=9 / deblock=1:-3:-3 / analyse=0x3:0x113 / me=tesa / subme=10 / psy=1 / psy_rd=1.00:0.00 / mixed_ref=1 / me_range=16 / chroma_me=1 / trellis=2 / 8x8dct=1 / cqm=0 / deadzone=21,11 / fast_pskip=0 / chroma_qp_offset=-2 / threads=12 / lookahead_threads=2 / sliced_threads=0 / nr=0 / decimate=0 / interlaced=0 / bluray_compat=0 / constrained_intra=0 / bframes=7 / b_pyramid=2 / b_adapt=2 / b_bias=0 / direct=3 / weightb=1 / open_gop=0 / weightp=2 / keyint=250 / keyint_min=23 / scenecut=40 / intra_refresh=0 / rc=crf / mbtree=0 / crf=17.0 / qcomp=0.70 / qpmin=0 / qpmax=69 / qpstep=4 / ip_ratio=1.30 / pb_ratio=1.30 / aq=1:0.80 / zones=149656,155136,crf=30
Language : English
Default : Yes
Forced : No

Audio #1
ID : 2
Format : AC-3
Format/Info : Audio Coding 3
Mode extension : CM (complete main)
Format settings, Endianness : Big
Codec ID : A_AC3
Duration : 1 h 47 min
Bit rate mode : Constant
Bit rate : 192 kb/s
Channel(s) : 2 channels
Channel positions : Front: L R
Sampling rate : 48.0 kHz
Frame rate : 31.250 FPS (1536 spf)
Bit depth : 16 bits
Compression mode : Lossy
Stream size : 148 MiB (2%)
Title : DVO (TBi)
Language : Ukrainian
Default : Yes
Forced : Yes

Audio #2
ID : 3
Format : AC-3
Format/Info : Audio Coding 3
Mode extension : CM (complete main)
Format settings, Endianness : Big
Codec ID : A_AC3
Duration : 1 h 47 min
Bit rate mode : Constant
Bit rate : 640 kb/s
Channel(s) : 5 channels
Channel positions : Front: L C R, Side: L R
Sampling rate : 48.0 kHz
Frame rate : 31.250 FPS (1536 spf)
Bit depth : 16 bits
Compression mode : Lossy
Stream size : 494 MiB (7%)
Title : Original
Language : Spanish
Default : No
Forced : No

Text #1
ID : 4
Format : UTF-8
Codec ID : S_TEXT/UTF8
Codec ID/Info : UTF-8 Plain Text
Duration : 1 h 43 min
Bit rate : 42 b/s
Count of elements : 648
Stream size : 31.9 KiB (0%)
Language : Ukrainian
Default : No
Forced : No

Text #2
ID : 5
Format : UTF-8
Codec ID : S_TEXT/UTF8
Codec ID/Info : UTF-8 Plain Text
Duration : 1 h 43 min
Bit rate : 27 b/s
Count of elements : 715
Stream size : 20.6 KiB (0%)
Language : Spanish
Default : No
Forced : No

Menu
00:00:00.000 : en:Opening credits
00:03:54.943 : en:Carlos
00:06:57.667 : en:Galvez and Owl
00:09:51.049 : en:Left behind
00:12:54.399 : en:Bed no. 12
00:14:32.330 : en:Jacinto and Conchita
00:17:24.669 : en:The One Who Sighs
00:20:46.287 : en:Off-limits for orphans
00:26:48.398 : en:"Many of you will die"
00:37:40.967 : en:At the pool
00:40:37.310 : en:The Devil's Backbone
00:42:48.357 : en:Swap meet
00:44:56.944 : en:The last time
00:47:43.152 : en:The legend of Santi
00:54:18.547 : en:Condemned
00:55:42.464 : en:"Show me where Santi is"
01:00:23.036 : en:"We have to go"
01:02:02.427 : en:Prince without a kingdom
01:06:25.231 : en:Prophecy fulfilled
01:10:26.597 : en:A new poem
01:15:53.758 : en:Armed and waiting
01:17:31.272 : en:The truth revealed
01:23:38.263 : en:"Say you're sorry"
01:28:08.950 : en:Santi's wish
01:29:44.045 : en:Jacinto returns
01:31:30.276 : en:Escape
01:37:20.043 : en:Gold
01:39:22.081 : en:A fitting punishment
Скріншоти



Висловлюю подяку п. xslim за наданий сирий звук, п. karvai0 за синхронізацію і п. Віктор за відредаговані українські субтитри.
Джерело: &
Особиста оцінка: 8 - мені сподобалося
Хребет диявола / El espinazo del diablo / The Devil's Backbone (2001) 720p Ukr/Esp | Sub Ukr/Esp


Хребет диявола / El espinazo del diablo / The Devil's Backbone (2001) 720p Ukr/Esp | Sub Ukr/Esp


Срібний реліз (на рейтинг впливає 50% завантаженого)
 Трекер:    Зареєстрований   

Завантажити / скачати фільм українською



відео для новачків



 Зареєстрований:   2017-02-26 09:49
 Розмір:   7.38 GB 
 Оцінка фільму:   8/10 (Голосів: 4)
   
Logist1984 
Новенький


З нами з: 18.09.14
Востаннє: 22.10.17
Повідомлень: 6

2017-02-26 16:04  
Скажіть, будьласка, 1080 можна очікувати?
Oleksa9 
Поважний учасник


З нами з: 17.05.12
Востаннє: 22.10.17
Повідомлень: 242

2017-02-26 18:23  
Logist1984 написано:
Скажіть, будь ласка, 1080 можна очікувати?


Або 720р, але до 4ГБ - для моб. цілком достатньо ))

Logist1984 
Новенький


З нами з: 18.09.14
Востаннє: 22.10.17
Повідомлень: 6

2017-03-05 20:49  
Oleksa9 написано:

Logist1984 написано:
Скажіть, будь ласка, 1080 можна очікувати?

Happy Sorry

igor911 
Відео Гуртом
Відео Гуртом


З нами з: 18.01.08
Востаннє: 23.10.17
Повідомлень: 7969

2017-03-06 03:28  
Oleksa9 написано:
але до 4ГБ

AVC

Ваш часовий пояс: GMT + 2 Години

Нова тема   Відповісти