Усі собаки потрапляють до раю / All Dogs Go to Heaven (1989) 720p Ukr/Eng | Sub Ukr/Eng

Нові коментарі

Нова тема   Відповісти
Автор Повідомлення
staf777 
Відео Гуртом - підтримка та поширення
Відео Гуртом - підтримка та поширення


З нами з: 16.11.16
Востаннє: 16.08.17
Повідомлень: 522

2017-02-25 12:33  
Усі собаки потрапляють до раю / All Dogs Go to Heaven (1989) 720p Ukr/Eng | Sub Ukr/Eng

Усі собаки потрапляють до раю / All Dogs Go to Heaven (1989) 720p Ukr/Eng | Sub Ukr/Eng
Оригінальна обкладинка

Усі собаки потрапляють до раю / All Dogs Go to Heaven (1989) 720p Ukr/Eng | Sub Ukr/Eng
Жанр: анімація, екшн, пригодницький
Країна: Ірландія, Велика Британія, США

Кінокомпанія: MGM
Режисер: Дон Блат (Don Bluth), Гарі Голдман (Gary Goldman), Ден Куенстер (Dan Kuenster)
Актори: Берт Рейнолдс (Burt Reynolds), Дом ДеЛуіс (Dom DeLuise), Джудіт Барс (Judith Barsi), Мелба Мур (Melba Moore), Деріл Гіллі (Daryl Gilley), Кенді Дівайн (Candy Devine), Чарльз Нельсон Рейлі (Charles Nelson Reilly), Вік Тейбек (Vic Tayback), Роб Фуллер (Rob Fuller), Анна Менехен (Anna Manahan), Найджел Пеграм (Nigel Pegram), Лоні Андерсон (Loni Anderson), Кен Пейдж (Ken Page)
Озвучення: Дмитро Завадський і Юлія Перенчук.
Сюжет:
Пес на ім'я Чарлі Баркін, що займався азартними іграми, гине від лап пітбуля Бульдозера і опиняється в раю - просто тому, що всі пси обов'язково потрапляють в рай. Проте Чарлі так хоче розрахуватися зі своїм убивцею, що повертається на Землю.

Разом зі своїм вірним другом Чесуном, Чарлі розкриває головний секрет успіху Бульдозера. Бульдозер використовує незвичайні здібності маленької дівчинки-сироти на ім'я Анні-Марі, яка вміє розмовляти з тваринами і вгадує результати щурячих перегонів і кінських скачок. Чарлі викрадає дівчинку, і вони стають кращими друзями.

Їм доведеться пережити безліч неймовірних пригод, перш ніж Чарлі зможе, завершивши свої земні справи, зі спокійною душею відправитися назад в рай ...


Тривалість: 01:24:35
Якість: 720p
Відео:
кодек:
розмір кадру: 1280x694
бітрейт: 11800 кб/с

Аудіо # 1:
мова: українська
переклад: двоголосий закадровий
кодек: 5.1
бітрейт: 384 кб/с

Аудіо # 2:
мова: англійська
переклад: оригінал
кодек: -HD 2.0
бітрейт: 768 кб/с

Субтитри # 1:
мова: українська
тип: програмні (м'які)
формат: *.srt

Субтитри # 2:
мова: англійська
тип: програмні (м'які)
формат: *.ass
Info
General
Unique ID : 203633634508899738458911436575494243944 (0x9932695408BF0A5FB9B277770ACA0668)
Complete name : P:\HD українською » Мультфільми в HD\All Dogs Go to Heaven (1989) [Ukr,Eng sub.Ukr,Eng] 720p [Hurtom].
Format :
Format version : Version 4 / Version 2
File size : 7.64 GiB
Duration : 1 h 24 min
Overall bit rate : 12.9 Mb/s
Movie name : All Dogs Go to Heaven (1989) [Ukr,Eng sub.Ukr,Eng] 720p [Hurtom]
Encoded date : UTC 2017-02-25 07:14:34
Writing application : mkvmerge v9.8.0 ('Kuglblids') 64bit
Writing library : libebml v1.3.4 + libmatroska v1.4.5
Cover : Yes
Attachments : cover.jpg / xlog.txt

Video
ID : 1
Format : AVC
Format/Info : Advanced Video Codec
Format profile : [email protected]
Format settings, CABAC : Yes
Format settings, ReFrames : 9 frames
Codec ID : V_MPEG4/ISO/AVC
Duration : 1 h 24 min
Bit rate : 11.8 Mb/s
Width : 1 280 pixels
Height : 694 pixels
Display aspect ratio : 1.85:1
Frame rate mode : Constant
Frame rate : 23.976 (24000/1001) FPS
Color space : YUV
Chroma subsampling : 4:2:0
Bit depth : 8 bits
Scan type : Progressive
Bits/(Pixel*Frame) : 0.554
Stream size : 6.97 GiB (91%)
Title : Release for HDCLUB
Writing library : core 124 r2197kMod 69a0443
Encoding settings : cabac=1 / ref=9 / deblock=1:-3:-3 / analyse=0x3:0x113 / me=umh / subme=11 / psy=1 / fade_compensate=0.00 / psy_rd=1.00:0.00 / mixed_ref=1 / me_range=48 / chroma_me=1 / trellis=2 / 8x8dct=1 / cqm=0 / deadzone=21,11 / fast_pskip=0 / chroma_qp_offset=-2 / threads=12 / sliced_threads=0 / nr=0 / decimate=0 / interlaced=0 / bluray_compat=0 / constrained_intra=0 / bframes=9 / b_pyramid=2 / b_adapt=2 / b_bias=0 / direct=3 / weightb=1 / open_gop=0 / weightp=2 / keyint=250 / keyint_min=23 / scenecut=40 / intra_refresh=0 / rc_lookahead=60 / rc=2pass / mbtree=1 / bitrate=11800 / ratetol=1.0 / qcomp=0.80 / qpmin=0 / qpmax=69 / qpstep=4 / cplxblur=20.0 / qblur=0.5 / vbv_maxrate=50000 / vbv_bufsize=62500 / nal_hrd=none / ip_ratio=1.10 / aq=2:0.65
Language : English
Default : Yes
Forced : No
Color range : Limited
Matrix coefficients : BT.709

Audio #1
ID : 2
Format : AC-3
Format/Info : Audio Coding 3
Mode extension : CM (complete main)
Format settings, Endianness : Big
Codec ID : A_AC3
Duration : 1 h 24 min
Bit rate mode : Constant
Bit rate : 384 kb/s
Channel(s) : 6 channels
Channel positions : Front: L C R, Side: L R, LFE
Sampling rate : 48.0 kHz
Frame rate : 31.250 FPS (1536 spf)
Bit depth : 16 bits
Compression mode : Lossy
Stream size : 232 MiB (3%)
Title : 5.1 @ 384 kbps 1+1
Language : Ukrainian
Default : Yes
Forced : Yes

Audio #2
ID : 3
Format :
Format/Info : Digital Theater Systems
Mode : 16
Format settings, Endianness : Big
Codec ID : A_DTS
Duration : 1 h 24 min
Bit rate mode : Constant
Bit rate : 755 kb/s
Channel(s) : 2 channels
Channel positions : Front: L R
Sampling rate : 48.0 kHz
Frame rate : 93.750 FPS (512 spf)
Bit depth : 24 bits
Compression mode : Lossy
Stream size : 456 MiB (6%)
Title : 2.0 @ 768 kbps
Language : English
Default : No
Forced : No

Text #1
ID : 4
Format : UTF-8
Codec ID : S_TEXT/UTF8
Codec ID/Info : UTF-8 Plain Text
Duration : 1 h 18 min
Bit rate : 80 b/s
Count of elements : 805
Stream size : 46.2 KiB (0%)
Language : Ukrainian
Default : No
Forced : No

Text #2
ID : 5
Format : ASS
Codec ID : S_TEXT/ASS
Codec ID/Info : Advanced Sub Station Alpha
Duration : 1 h 22 min
Bit rate : 146 b/s
Count of elements : 1611
Compression mode : Lossless
Stream size : 88.8 KiB (0%)
Language : English
Default : No
Forced : No

Menu
00:00:00.000 : en:Logos/"Rat Race"
00:05:11.228 : en:You Can't Keep a Good Dog Down
00:08:32.846 : en:Carface & Charlie
00:14:18.191 : en:Let Me Be Surprised
00:19:32.296 : en:"I'm Not a Ghost!"
00:23:40.586 : en:Saving Anne-Marie
00:28:51.605 : en:Bedtime Story
00:37:51.978 : en:"Grand Chawhee to Win"
00:40:42.649 : en:"Jackpot!"
00:43:56.551 : en:What's Mine Is Yours
00:49:24.753 : en:Soon You'll Come Home
00:54:36.315 : en:"Don't Worry About Me"
00:57:36.119 : en:Let's Make Music Together
01:03:05.532 : en:"Bad Dog!"
01:08:47.623 : en:To the Rescue
01:14:00.353 : en:Heavenly Dog/Credits
Скріншоти



Подяка urij546724 за синхронізацію української доріжки та субтитри,
xslim — запис звуку, Skazhutin (HDClub) — відеоріп, karvai0 — українізований постер

Джерело: &
Особиста оцінка: 8 - мені сподобалося
Усі собаки потрапляють до раю / All Dogs Go to Heaven (1989) 720p Ukr/Eng | Sub Ukr/Eng


Усі собаки потрапляють до раю / All Dogs Go to Heaven (1989) 720p Ukr/Eng | Sub Ukr/Eng


Срібний реліз (на рейтинг впливає 50% завантаженого)
 Трекер:    Зареєстрований   

Завантажити / скачати мультфільм українською



відео для новачків



 Зареєстрований:   2017-02-25 12:33
 Розмір:   7.64 GB 
 Оцінка мультфільму:   10/10 (Голосів: 7)
   
Ваш часовий пояс: GMT + 2 Години

Нова тема   Відповісти