Повстання планети мавп / Rise of the Planet of the Apes (2011) 1080p Ukr/Eng | Sub Ukr/Eng

Нові коментарі

Нова тема   Відповісти
Автор Повідомлення
staf777 
Відео Гуртом - підтримка та поширення
Відео Гуртом - підтримка та поширення


З нами з: 16.11.16
Востаннє: 20.10.17
Повідомлень: 522

2017-02-24 21:59  
Повстання планети мавп / Rise of the Planet of the Apes (2011) 1080p Ukr/Eng | Sub Ukr/Eng

Повстання планети мавп / Rise of the Planet of the Apes (2011) 1080p Ukr/Eng | Sub Ukr/Eng
Оригінальна обкладинка

Повстання планети мавп / Rise of the Planet of the Apes (2011) 1080p Ukr/Eng | Sub Ukr/Eng
Жанр: драма, бойовик, наукова фантастика
Країна: США



Кінокомпанія: Twentieth Century Fox Film Corporation, Chernin Entertainment, Dune Entertainment
Режисер: Руперт Віат (Rupert Wyatt)
Актори: Джеймс Франко (James Franco), Фрейда Пінто (Freida Pinto), Джон Літгов (John Lithgow), Браян Кокс (Brian Cox), Том Фелтон (Tom Felton), Джеймі Гарріс (Jamie Harris), Ті Олсон (Ty Olsson), Тайлер Лебайн (Tyler Labine) та інші.

Сюжет:
Історія, що вже стала класикою наукової фантастики, перенесена в сучасний Сан-Франциско, де молодий вчений Віл Родман працює над ліками проти хвороби Альцгеймера. У винайденої речовини виявляється цікавий побічний ефект - у мавп, на яких Родман тестував зразки нових препаратів, починає прогресувати інтелект, швидко наздоганяючи людей в рівні розумового розвитку. Головна жертва експериментів, шимпанзе Цезар, виривається на свободу і випускає речовину-покращувач, "розвиваючи" своїх братів-мавп та збираючи з них армію для знищення людей.


Тривалість: 01:44:56
Якість: 1080p
Відео:
кодек:
розмір кадру: 1920x816
бітрейт: 14500 кб/с

Аудіо # 1:
мова: українська
переклад: професійний дубльований
кодек: 5.1
бітрейт: 448 кб/с

Аудіо # 2:
мова: англійська

переклад: оригінал
кодек: 5.1
бітрейт: 1509 кб/с

Аудіо # 3:
мова: англійська
переклад: |Аудіокоментар режисера Руперта Уайатта|
кодек: 2.0
бітрейт: 224 кб/с

Аудіо # 4:
мова: англійська
переклад: |Аудіокоментар сценаристів Ріка Джаффи і Аманди Сільвер|
кодек: 2.0
бітрейт: 224 кб/с

Субтитри #1:
мова: українська
тип: програмні (м'які)
формат: *.srt

Субтитри #2-6:
мова: англійська
тип: програмні (м'які)
формат: *.srt
Info
General
Unique ID : 208845787135704709595792976789837927123 (0x9D1E3C4B103F72E4A0A1727DD7F752D3)
Complete name : P:\HD українською » Фільми в HD\Фантастика\Rise of the Planet of the Apes (2011) [Ukr,Eng sub.Ukr,Eng] 1080p [Hurtom].
Format :
Format version : Version 4 / Version 2
File size : 12.4 GiB
Duration : 1 h 44 min
Overall bit rate : 16.9 Mb/s
Movie name : Rise of the Planet of the Apes (2011) [Ukr,Eng sub.Ukr,Eng] 1080p [Hurtom]
Encoded date : UTC 2017-02-25 06:16:08
Writing application : mkvmerge v9.8.0 ('Kuglblids') 64bit
Writing library : libebml v1.3.4 + libmatroska v1.4.5

Video
ID : 1
Format : AVC
Format/Info : Advanced Video Codec
Format profile : [email protected]
Format settings, CABAC : Yes
Format settings, ReFrames : 5 frames
Codec ID : V_MPEG4/ISO/AVC
Duration : 1 h 44 min
Bit rate : 14.5 Mb/s
Width : 1 920 pixels
Height : 816 pixels
Display aspect ratio : 2.35:1
Frame rate mode : Constant
Frame rate : 23.976 (24000/1001) FPS
Color space : YUV
Chroma subsampling : 4:2:0
Bit depth : 8 bits
Scan type : Progressive
Bits/(Pixel*Frame) : 0.386
Stream size : 10.6 GiB (86%)
Title : Release for HDCLUB
Writing library : core 119 r2106 07efeb4
Encoding settings : cabac=1 / ref=5 / deblock=1:-3:-3 / analyse=0x3:0x133 / me=umh / subme=11 / psy=1 / psy_rd=0.90:0.00 / mixed_ref=1 / me_range=48 / chroma_me=1 / trellis=2 / 8x8dct=1 / cqm=0 / deadzone=21,11 / fast_pskip=0 / chroma_qp_offset=-2 / threads=12 / sliced_threads=0 / nr=0 / decimate=0 / interlaced=0 / bluray_compat=0 / constrained_intra=0 / bframes=7 / b_pyramid=2 / b_adapt=2 / b_bias=0 / direct=3 / weightb=1 / open_gop=0 / weightp=2 / keyint=250 / keyint_min=23 / scenecut=40 / intra_refresh=0 / rc_lookahead=40 / rc=2pass / mbtree=1 / bitrate=14500 / ratetol=1.0 / qcomp=0.60 / qpmin=0 / qpmax=69 / qpstep=4 / cplxblur=20.0 / qblur=0.5 / ip_ratio=1.40 / aq=2:1.00 / zones=2089,2310,b=1.5/2446,3501,b=1.5/4241,5235,b=1.5/6859,11421,b=1.5/13946,14015,b=1.5/20671,21583,b=1.5/22152,22734,b=1.5/65830,69147,b=1.5/73247,82723,b=1.5/95431,110098,b=1.5
Language : English
Default : Yes
Forced : No

Audio #1
ID : 2
Format : AC-3
Format/Info : Audio Coding 3
Mode extension : CM (complete main)
Format settings, Endianness : Big
Codec ID : A_AC3
Duration : 1 h 44 min
Bit rate mode : Constant
Bit rate : 448 kb/s
Channel(s) : 6 channels
Channel positions : Front: L C R, Side: L R, LFE
Sampling rate : 48.0 kHz
Frame rate : 31.250 FPS (1536 spf)
Bit depth : 16 bits
Compression mode : Lossy
Stream size : 336 MiB (3%)
Title : 5.1 448 kbps Дубляж, Blu-ray CEE
Language : Ukrainian
Default : Yes
Forced : Yes

Audio #2
ID : 3
Format :
Format/Info : Digital Theater Systems
Mode : 16
Format settings, Endianness : Big
Codec ID : A_DTS
Duration : 1 h 44 min
Bit rate mode : Constant
Bit rate : 1 509 kb/s
Channel(s) : 6 channels
Channel positions : Front: L C R, Side: L R, LFE
Sampling rate : 48.0 kHz
Frame rate : 93.750 FPS (512 spf)
Bit depth : 24 bits
Compression mode : Lossy
Delay relative to video : 11 ms
Stream size : 1.11 GiB (9%)
Title : 5.1
Language : English
Default : No
Forced : No

Audio #3
ID : 4
Format : AC-3
Format/Info : Audio Coding 3
Mode extension : CM (complete main)
Format settings, Endianness : Big
Codec ID : A_AC3
Duration : 1 h 44 min
Bit rate mode : Constant
Bit rate : 224 kb/s
Channel(s) : 2 channels
Channel positions : Front: L R
Sampling rate : 48.0 kHz
Frame rate : 31.250 FPS (1536 spf)
Bit depth : 16 bits
Compression mode : Lossy
Stream size : 168 MiB (1%)
Title : 2.0 224 kbps Commentary by Director Rupert Wyatt
Language : English
Default : No
Forced : No

Audio #4
ID : 5
Format : AC-3
Format/Info : Audio Coding 3
Mode extension : CM (complete main)
Format settings, Endianness : Big
Codec ID : A_AC3
Duration : 1 h 44 min
Bit rate mode : Constant
Bit rate : 224 kb/s
Channel(s) : 2 channels
Channel positions : Front: L R
Sampling rate : 48.0 kHz
Frame rate : 31.250 FPS (1536 spf)
Bit depth : 16 bits
Compression mode : Lossy
Stream size : 168 MiB (1%)
Title : 2.0 224 kbps Commentary by Writers Rick Jaffa and Amanda Silver
Language : English
Default : No
Forced : No

Text #1
ID : 6
Format : UTF-8
Codec ID : S_TEXT/UTF8
Codec ID/Info : UTF-8 Plain Text
Duration : 1 h 41 min
Bit rate : 51 b/s
Count of elements : 820
Stream size : 38.6 KiB (0%)
Title : Blu-ray CEE
Language : Ukrainian
Default : No
Forced : No

Text #2
ID : 7
Format : UTF-8
Codec ID : S_TEXT/UTF8
Codec ID/Info : UTF-8 Plain Text
Duration : 55 min 50 s
Bit rate : 0 b/s
Count of elements : 10
Stream size : 154 Bytes (0%)
Title : Body language
Language : English
Default : No
Forced : No

Text #3
ID : 8
Format : UTF-8
Codec ID : S_TEXT/UTF8
Codec ID/Info : UTF-8 Plain Text
Duration : 1 h 34 min
Bit rate : 33 b/s
Count of elements : 816
Stream size : 23.3 KiB (0%)
Language : English
Default : No
Forced : No

Text #4
ID : 9
Format : UTF-8
Codec ID : S_TEXT/UTF8
Codec ID/Info : UTF-8 Plain Text
Duration : 1 h 43 min
Bit rate : 36 b/s
Count of elements : 994
Stream size : 27.2 KiB (0%)
Title : voronine, SDH
Language : English
Default : No
Forced : No

Text #5
ID : 10
Format : UTF-8
Codec ID : S_TEXT/UTF8
Codec ID/Info : UTF-8 Plain Text
Duration : 1 h 38 min
Bit rate : 86 b/s
Count of elements : 1492
Stream size : 62.0 KiB (0%)
Title : Commentary by Director Rupert Wyatt
Language : English
Default : No
Forced : No

Text #6
ID : 11
Format : UTF-8
Codec ID : S_TEXT/UTF8
Codec ID/Info : UTF-8 Plain Text
Duration : 1 h 43 min
Bit rate : 104 b/s
Count of elements : 1775
Stream size : 79.5 KiB (0%)
Title : Commentary by Writers Rick Jaffa and Amanda Silver
Language : English
Default : No
Forced : No

Menu
00:00:00.000 : en:00:00:00.000
00:05:24.407 : en:00:05:24.407
00:09:17.974 : en:00:09:17.974
00:14:19.067 : en:00:14:19.067
00:18:07.545 : en:00:18:07.545
00:20:03.786 : en:00:20:03.786
00:22:38.148 : en:00:22:38.148
00:25:17.015 : en:00:25:17.015
00:29:42.656 : en:00:29:42.656
00:33:38.266 : en:00:33:38.266
00:38:29.098 : en:00:38:29.098
00:41:12.595 : en:00:41:12.595
00:45:19.008 : en:00:45:19.008
00:48:50.177 : en:00:48:50.177
00:52:56.632 : en:00:52:56.632
00:57:30.280 : en:00:57:30.280
00:59:26.730 : en:00:59:26.730
01:01:30.145 : en:01:01:30.145
01:05:03.608 : en:01:05:03.608
01:06:20.268 : en:01:06:20.268
01:09:34.962 : en:01:09:34.962
01:11:15.688 : en:01:11:15.688
01:15:44.123 : en:01:15:44.123
01:18:29.204 : en:01:18:29.204
01:23:09.276 : en:01:23:09.276
01:27:50.390 : en:01:27:50.390
01:33:00.366 : en:01:33:00.366
01:37:08.948 : en:01:37:08.948
Скріншоти



Джерело:
Особиста оцінка: 8 - мені сподобалося
Повстання планети мавп / Rise of the Planet of the Apes (2011) 1080p Ukr/Eng | Sub Ukr/Eng


Повстання планети мавп / Rise of the Planet of the Apes (2011) 1080p Ukr/Eng | Sub Ukr/Eng


 Трекер:    Зареєстрований   

Завантажити / скачати фільм українською



відео для новачків



 Зареєстрований:   2017-02-25 10:37
 Розмір:   12.39 GB 
 Оцінка фільму:   9.3/10 (Голосів: 14)
   
Ваш часовий пояс: GMT + 2 Години

Нова тема   Відповісти