Москва на Гудзоні / Moscow on the Hudson (1984) Remux 1080p Ukr/Eng | Sub Eng

Нові коментарі

Нова тема   Відповісти
Автор Повідомлення
staf777 
Відео Гуртом - підтримка та поширення
Відео Гуртом - підтримка та поширення


З нами з: 16.11.16
Востаннє: 16.08.17
Повідомлень: 522

2017-02-24 17:13  
Москва на Гудзоні / Moscow on the Hudson (1984) Remux 1080p Ukr/Eng | Sub Eng

Москва на Гудзоні / Moscow on the Hudson (1984) Remux 1080p Ukr/Eng | Sub Eng
Альтернативний постер


Жанр: комедія, драма, романтичний
Країна: США



Кінокомпанія: Bavaria Film, Columbia Pictures Corporation, Delphi Premier Productions
Режисер: Пол Мазурскі / Paul Mazursky
Актори: Робін Вільямс / Robin Williams, Марія Кончіта Алонсо / Maria Conchita Alonso, Клівант Деррікс / Cleavant Derricks, Савелій Крамаров / Saveli Kramarov, Ілля Баскін / Ilya Baskin та інші

Сюжет:
За іронією долі, музикант Володимир Іванов, що грає на саксофоні в оркестрі радянського цирку, одержав шанс, який, по совісті, повинен був випасти його другові, клоуну Анатолію. Той ненавидів радянську владу і пристрасно мріяв втекти на захід... Музикант, що ніколи і не думав про подібне, опиняється перед нелегким вибором: зберегти вірність ідеалам соціалізму або зробити рішучий крок назустріч новому життю...


Тривалість: 01:57:16
Якість: Remux 1080p
Відео:
кодек:
розмір кадру: 1920x1080
бітрейт: 29996 кб/с

Аудіо # 1:
мова: українська
переклад: багатоголосий закадровий
ролі озвучили: Олег Стальчук, Михайло Жонін, Наталія Поліщук, Роман Чорний
кодек: 2.0
бітрейт: 192 кб/с

Аудіо # 2:
мова: англійська
переклад: оригінал
кодек: -HD 5.1
бітрейт: 3439 кб/с

Аудіо # 3:
мова: англійська
переклад: коментарі з кінознавцями Julie Kirgo та Nick'ом Redman'ом
кодек: 2.0
бітрейт: 448 кб/с

Аудіо # 4:
мова: англійська
переклад: коментарі з режисером Полом Мазурскі
кодек: 2.0
бітрейт: 448 кб/с

Субтитри:
мова: англійська
тип: пререндерні
формат: *.pgs
Info
General
Unique ID : 253427940180755990619398689319370846895 (0xBEA87224C9E1CBA288E965B1796372AF)
Complete name : P:\HDClub\MOSCOW_ON_THE_HUDSON_1984_REMUX_HDCLUB\BDMV\STREAM\ Moscow on the Hudson (1984) [Ukr,Eng sub.Eng] Remux 1080p [Hurtom].
Format :
Format version : Version 4 / Version 2
File size : 28.2 GiB
Duration : 1 h 57 min
Overall bit rate mode : Variable
Overall bit rate : 34.4 Mb/s
Movie name : Moscow on the Hudson (1984) [Ukr,Eng sub.Eng] Remux 1080p [Hurtom]
Encoded date : UTC 2017-02-24 12:10:30
Writing application : mkvmerge v9.8.0 ('Kuglblids') 64bit
Writing library : libebml v1.3.4 + libmatroska v1.4.5

Video
ID : 1
Format : AVC
Format/Info : Advanced Video Codec
Format profile : [email protected]
Format settings, CABAC : Yes
Format settings, ReFrames : 4 frames
Codec ID : V_MPEG4/ISO/AVC
Duration : 1 h 57 min
Bit rate mode : Variable
Bit rate : 29.9 Mb/s
Maximum bit rate : 34.0 Mb/s
Width : 1 920 pixels
Height : 1 080 pixels
Display aspect ratio : 16:9
Frame rate mode : Constant
Frame rate : 23.976 (24000/1001) FPS
Color space : YUV
Chroma subsampling : 4:2:0
Bit depth : 8 bits
Scan type : Progressive
Bits/(Pixel*Frame) : 0.601
Stream size : 24.5 GiB (87%)
Default : Yes
Forced : No

Audio #1
ID : 2
Format : AC-3
Format/Info : Audio Coding 3
Mode extension : CM (complete main)
Format settings, Endianness : Big
Codec ID : A_AC3
Duration : 1 h 57 min
Bit rate mode : Constant
Bit rate : 192 kb/s
Channel(s) : 2 channels
Channel positions : Front: L R
Sampling rate : 48.0 kHz
Frame rate : 31.250 FPS (1536 spf)
Bit depth : 16 bits
Compression mode : Lossy
Stream size : 161 MiB (1%)
Language : Ukrainian
Default : Yes
Forced : Yes

Audio #2
ID : 3
Format :
Format/Info : Digital Theater Systems
Format profile : MA / Core
Mode : 16
Format settings, Endianness : Big
Codec ID : A_DTS
Duration : 1 h 57 min
Bit rate mode : Variable / Constant
Bit rate : 3 439 kb/s / 1 509 kb/s
Channel(s) : 6 channels
Channel positions : Front: L C R, Side: L R, LFE
Sampling rate : 48.0 kHz
Frame rate : 93.750 FPS (512 spf)
Bit depth : 24 bits
Compression mode : Lossless / Lossy
Stream size : 2.82 GiB (10%)
Language : English
Default : No
Forced : No

Audio #3
ID : 4
Format : AC-3
Format/Info : Audio Coding 3
Mode extension : CM (complete main)
Format settings, Endianness : Big
Codec ID : A_AC3
Duration : 1 h 57 min
Bit rate mode : Constant
Bit rate : 448 kb/s
Channel(s) : 2 channels
Channel positions : Front: L R
Sampling rate : 48.0 kHz
Frame rate : 31.250 FPS (1536 spf)
Bit depth : 16 bits
Compression mode : Lossy
Stream size : 376 MiB (1%)
Language : English
Default : No
Forced : No

Audio #4
ID : 5
Format : AC-3
Format/Info : Audio Coding 3
Mode extension : CM (complete main)
Format settings, Endianness : Big
Codec ID : A_AC3
Duration : 1 h 57 min
Bit rate mode : Constant
Bit rate : 448 kb/s
Channel(s) : 2 channels
Channel positions : Front: L R
Sampling rate : 48.0 kHz
Frame rate : 31.250 FPS (1536 spf)
Bit depth : 16 bits
Compression mode : Lossy
Stream size : 376 MiB (1%)
Language : English
Default : No
Forced : No

Text
ID : 6
Format : PGS
Muxing mode : zlib
Codec ID : S_HDMV/PGS
Codec ID/Info : Picture based subtitle format used on BDs/HD-DVDs
Duration : 1 h 55 min
Bit rate : 7 603 b/s
Count of elements : 2846
Stream size : 6.30 MiB (0%)
Language : English
Default : No
Forced : No
Скріншоти



Подяки: п. OlegCena за запис з ТБ та п. voin747 за синхронізацію
Джерело: &
Особиста оцінка: 8 - мені сподобалося
Москва на Гудзоні / Moscow on the Hudson (1984) Remux 1080p Ukr/Eng | Sub Eng


Москва на Гудзоні / Moscow on the Hudson (1984) Remux 1080p Ukr/Eng | Sub Eng


Золотий реліз (завантажене не впливає на рейтинг)
 Трекер:    Зареєстрований   

Завантажити / скачати фільм українською



відео для новачків



 Зареєстрований:   2017-02-24 17:13
 Розмір:   28.18 GB 
 Оцінка фільму:   8.3/10 (Голосів: 6)
   
Інші релізи
   Москва на Гудзоні / Moscow on the Hudson (1984) patriot2305  5 / 0   1.45 GB   2014-03-24 14:58 
Ваш часовий пояс: GMT + 2 Години

Нова тема   Відповісти