Воркрафт (Варкрафт): Початок / Warcraft (2016) 720p-mini (60 fps)

Нові коментарі

Нова тема   Відповісти
Автор Повідомлення
Drool 
VIP


З нами з: 17.04.10
Востаннє: 16.08.17
Повідомлень: 1366

2017-02-24 16:35  
Воркрафт (Варкрафт): Початок / Warcraft (2016) 720p-mini (60 fps)

Жанр: бойовик, пригоди, фентезі
Країна: США, Канада, Японія, Китай


Діти до 13 років допускаються на фільм тільки з батьками
Настійне застереження батькам. Деякий матеріал може бути невідповідним для дітей до 13 років. Цей рейтинг показує, що оцінений фільм може бути невідповідним для дітей. Батьки повинні бути особливо обережні, дозволяючи своїм маленьким дітям перегляд. Грубе або тривале насильство відсутнє; сексуальна орієнтація на наготу відсутня; деякі сцени вживання наркотиків можуть бути присутніми; можна почути одиничні вживання грубої сексуальної лексики. Присутня епізодична оголеність (не враховуючи репродуктивні органи). Присутні сексуальні натяки і натяки на гомосексуалізм чи сексуальні збочення.
Кінокомпанія: Universal Pictures, Atlas Entertainment, Legendary Pictures, Blizzard Entertainment
Режисер: Дункан Джонс
Актори: Бен Фостер, Тобі Кеббелл, Домінік Купер, Раян Роббінс, Роберт Казінськи, Тревіс Фіммел, Паула Паттон, Кленсі Браун, Каллен Мулвей, Рут Неґґа

Сюжет:
Фантастичний фільм від режисера "Місяць 2112" і "Початкового Коду" Дункана Джонса. Епічна стрічка про протистояння людей і орків, заснована на серії популярних відеоігор та романів. Королівство Азерота знаходиться на порозі війни. Мирні жителі зі своїм ватажком Андуіном Лотаром стикаються із расою жорстоких загарбників - орків. Ті, в свою чергу, шукають нову землю, бо їхня батьківщина Дренор більше не придатна для життя. Два світи з'єднає Темний портал, за допомогою якого військо ватажка орків Дуротана увірветься на землі людей. Яка раса візьме гору в цій смертельній сутичці?


Тривалість: 02:03:07
Якість: 720p-mini
Відео:
кодек:
розмір кадру: 1280x526
бітрейт: 4595 кб/с
crf: 17.7
кадрів на секунду: 59.940 к/с

Аудіо:
мова: українська
переклад: професійний дубльований
кодек: 2.0
бітрейт: 192 кб/с

Субтитри:
мова: українська
тип: програмні (м'які, форсовані)
формат: *.srt
Info
Код:
General
Unique ID                                : 187356015156516083364196967950559090382 (0x8CF374BB70854FA1A47FD34F894616CE)
Complete name                            : /mnt/disk_d/Video/Warcraft.2016.Ukr.Dub-2.0..720p-mini.60fps.
Format                                   :
Format version                           : Version 4 / Version 2
File size                                : 4.20 GiB
Duration                                 : 2h 3mn
Overall bit rate                         : 4 884 Kbps
Movie name                               : Воркрафт (Варкрафт): Початок / Warcraft (2016) 720p-mini (60 fps) | by NNNB
Encoded date                             : UTC 2017-02-24 13:47:14
Writing application                      : mkvmerge v9.7.1 ('Pandemonium') 64bit
Writing library                          : libebml v1.3.4 + libmatroska v1.4.5
Attachements                             : cover.jpg
DURATION                                 : 00:50:05.187000000
NUMBER_OF_FRAMES                         : 6
NUMBER_OF_BYTES                          : 221
_STATISTICS_WRITING_APP                  : mkvmerge v9.7.1 ('Pandemonium') 64bit
_STATISTICS_WRITING_DATE_UTC             : 2017-02-24 13:47:14
_STATISTICS_TAGS                         : BPS DURATION NUMBER_OF_FRAMES NUMBER_OF_BYTES

Video
ID                                       : 1
Format                                   : AVC
Format/Info                              : Advanced Video Codec
Format profile                           : [email protected]
Format settings, CABAC                   : Yes
Format settings, ReFrames                : 9 frames
Codec ID                                 : V_MPEG4/ISO/AVC
Duration                                 : 2h 3mn
Bit rate                                 : 4 595 Kbps
Width                                    : 1 280 pixels
Height                                   : 526 pixels
Display aspect ratio                     : 2.40:1
Frame rate mode                          : Constant
Frame rate                               : 59.880 fps
Original frame rate                      : 59.940 fps
Color space                              : YUV
Chroma subsampling                       : 4:2:0
Bit depth                                : 8 bits
Scan type                                : Progressive
Bits/(Pixel*Frame)                       : 0.114
Stream size                              : 3.95 GiB (94%)
Title                                    : Воркрафт (Варкрафт): Початок / Warcraft (2016) 720p-mini (60 fps) | by NNNB
Writing library                          : core 146 r2538 121396c
Encoding settings                        : cabac=1 / ref=9 / deblock=1:0:0 / analyse=0x3:0x113 / me=umh / subme=9 / psy=1 / psy_rd=1.00:0.00 / mixed_ref=1 / me_range=24 / chroma_me=1 / trellis=2 / 8x8dct=1 / cqm=0 / deadzone=21,11 / fast_pskip=0 / chroma_qp_offset=-2 / threads=12 / lookahead_threads=1 / sliced_threads=0 / nr=0 / decimate=1 / interlaced=0 / bluray_compat=0 / constrained_intra=0 / bframes=5 / b_pyramid=2 / b_adapt=2 / b_bias=0 / direct=3 / weightb=1 / open_gop=0 / weightp=2 / keyint=250 / keyint_min=25 / scenecut=40 / intra_refresh=0 / rc_lookahead=40 / rc=crf / mbtree=0 / crf=17.7 / qcomp=0.60 / qpmin=0 / qpmax=69 / qpstep=4 / vbv_maxrate=14000 / vbv_bufsize=14000 / crf_max=0.0 / nal_hrd=none / filler=0 / ip_ratio=1.40 / pb_ratio=1.30 / aq=3:1.00
Default                                  : Yes
Forced                                   : Yes
DURATION                                 : 02:03:07.347000000
NUMBER_OF_FRAMES                         : 442798
NUMBER_OF_BYTES                          : 4329323075
_STATISTICS_WRITING_APP                  : mkvmerge v9.7.1 ('Pandemonium') 64bit
_STATISTICS_WRITING_DATE_UTC             : 2017-02-24 13:47:14
_STATISTICS_TAGS                         : BPS DURATION NUMBER_OF_FRAMES NUMBER_OF_BYTES

Audio
ID                                       : 2
Format                                   : AC-3
Format/Info                              : Audio Coding 3
Mode extension                           : CM (complete main)
Format settings, Endianness              : Big
Codec ID                                 : A_AC3
Duration                                 : 2h 3mn
Bit rate mode                            : Constant
Bit rate                                 : 192 Kbps
Channel(s)                               : 2 channels
Channel positions                        : Front: L R
Sampling rate                            : 48.0 KHz
Compression mode                         : Lossy
Stream size                              : 169 MiB (4%)
Title                                    : 2.0, 192 kbps
Language                                 : Ukrainian
Default                                  : Yes
Forced                                   : Yes

Text
ID                                       : 3
Format                                   : UTF-8
Codec ID                                 : S_TEXT/UTF8
Codec ID/Info                            : UTF-8 Plain Text
Title                                    : Forced
Language                                 : Ukrainian
Default                                  : Yes
Forced                                   : Yes
Скріншоти


Джерело відеоряду:
Особиста оцінка: 8 - мені сподобалося


 Трекер:    Зареєстрований   

Завантажити / скачати фільм українською



відео для новачків



 Зареєстрований:   2017-02-24 17:23
 Розмір:   4.2 GB 
 Оцінка фільму:   9.2/10 (Голосів: 17)
   
Ваш часовий пояс: GMT + 2 Години

Нова тема   Відповісти