Біллі Лінн: Довга перерва посеред бою (Довга прогулянка Біллі Лінна в перерві футбольного матчу) / Billy Lynn's Long Halftime Walk (2016) 1080p Eng | Sub Ukr/Eng

Нові коментарі

Нова тема   Відповісти
Автор Повідомлення
Anonymous 







2017-02-24 03:40  
Біллі Лінн: Довга перерва посеред бою /
Довга прогулянка Біллі Лінна в перерві футбольного матчу /
Billy Lynn's Long Halftime Walk (2016) 1080p Eng | Sub Ukr/Eng


Біллі Лінн: Довга перерва посеред бою (Довга прогулянка Біллі Лінна в перерві футбольного матчу) / Billy Lynn's Long Halftime Walk (2016) 1080p Eng | Sub Ukr/Eng
Альтернативні обкладинки та постери:

Біллі Лінн: Довга перерва посеред бою (Довга прогулянка Біллі Лінна в перерві футбольного матчу) / Billy Lynn's Long Halftime Walk (2016) 1080p Eng | Sub Ukr/Eng











Жанр: драма, воєнний
Країна: США, Велика Британія, Китай



Кінокомпанія: Bona Film Group, Film4, Ink Factory, Marc Platt Productions, Studio 8, TriStar Pictures, TriStar Productions
Режисер: Енг Лі / Ang Lee
Актори: Джо Елвін / Joe Alwyn, Крістен Стюарт / Kristen Stewart, Він Дізель / Vin Diesel, Ґаррет Гедлунд / Garrett Hedlund, Стів Мартін / Steve Martin, Кріс Такер / Chris Tucker, Тім Блейк Нельсон / Tim Blake Nelson, Макензі Лі / Makenzie Leigh, Бо Напп / Beau Knapp, Артуро Кастро / Arturo Castro, Мейсон Лі / Mason Lee, Астро / Astro та інші

Сюжет:
19-річний солдат Біллі Лінн пройшов пекло війни в Іраку і дивом вижив. Повернувшись додому, хлопці, які вціліли в ризикованих спецопераціях, стають національними героями і зірками розважальних промо-турів, кульмінацією яких стає шоу в перерві футбольного матчу на День подяки. Після гучних почестей бійців чекає неприємний сюрприз: їх знову відправляють на війну…
За однойменним романом Бена Фаунтейна

Офіційний український трейлер:

Цитата:
Цікаві факти:
- фільм знято камерою Sony CineAlta F65 у форматі 4K 120 кадрів/с
- прем'єра в Україні мала відбутися 02.03.2017, але була скасована


Рейтинг MPAA: R - особам до 17 років обов'язкова присутність батьків або дорослого опікуна
Вікова категорія: 16+

Тривалість: 01:52:44
Якість: 1080p
Відео:
кодек:
розмір кадру: 1920 х 1028
бітрейт: 5177 кб/с

Аудіо:
мова: англійська
переклад: оригінал
кодек: 5.1
бітрейт: 384 кб/с

Субтитри # 1:
мова: українська
тип: програмні (м'які)
формат: *.srt
переклад: Тетяна Романюк

Субтитри # 2:
мова: англійська
тип: програмні (м'які)
формат: *.srt

Збережено оригінальні розділи
Info
Код:
Format                      :
Format version              : Version 4 / Version 2
File size                   : 4.38 GiB
Duration                    : 1 h 52 min
Overall bit rate            : 5 564 kb/s

Video
ID                          : 1
Format                      : AVC
Format/Info                 : Advanced Video Codec
Format profile              : [email protected]
Format settings, CABAC      : Yes
Format settings, ReFrames   : 4 frames
Codec ID                    : V_MPEG4/ISO/AVC
Duration                    : 1 h 52 min
Bit rate                    : 5 177 kb/s
Width                       : 1 920 pixels
Height                      : 1 028 pixels
Display aspect ratio        : 1.85:1
Frame rate mode             : Constant
Frame rate                  : 23.976 FPS
Color space                 : YUV
Chroma subsampling          : 4:2:0
Bit depth                   : 8 bits
Scan type                   : Progressive
Bits/(Pixel*Frame)          : 0.109
Stream size                 : 4.08 GiB (93%)
Title                       : Біллі Лінн: Довга перерва посеред бою / Довга прогулянка Біллі Лінна в перерві футбольного матчу / Billy Lynn's Long Halftime Walk (2016) 1080p [HDCLUB]
Language                    : English
Default                     : Yes
Forced                      : No
Color range                 : Limited
Color primaries             : BT.709
Transfer characteristics    : BT.709
Matrix coefficients         : BT.709

Audio
ID                          : 2
Format                      : AC-3
Format/Info                 : Audio Coding 3
Mode extension              : CM (complete main)
Format settings, Endianness : Big
Codec ID                    : A_AC3
Duration                    : 1 h 52 min
Bit rate mode               : Constant
Bit rate                    : 384 kb/s
Channel(s)                  : 6 channels
Channel positions           : Front: L C R, Side: L R, LFE
Sampling rate               : 48.0 kHz
Frame rate                  : 31.250 FPS (1536 spf)
Bit depth                   : 16 bits
Compression mode            : Lossy
Stream size                 : 310 MiB (7%)
Title                       : Original, 5.1 384 kbps
Language                    : English
Default                     : Yes
Forced                      : No

Text #1
ID                          : 3
Format                      : UTF-8
Codec ID                    : S_TEXT/UTF8
Codec ID/Info               : UTF-8 Plain Text
Duration                    : 1 h 50 min
Bit rate                    : 123 b/s
Count of elements           : 1928
Stream size                 : 100 KiB (0%)
Title                       : Ukr full [iTunes-Тетяна Романюк]
Language                    : Ukrainian
Default                     : Yes
Forced                      : No

Text #2
ID                          : 4
Format                      : UTF-8
Codec ID                    : S_TEXT/UTF8
Codec ID/Info               : UTF-8 Plain Text
Duration                    : 1 h 45 min
Bit rate                    : 88 b/s
Count of elements           : 1908
Stream size                 : 68.5 KiB (0%)
Title                       : Eng full [iTunes]
Language                    : English
Default                     : No
Forced                      : No

Menu
00:00:00.000                : en:1
00:06:04.906                : en:2
00:13:20.883                : en:3
00:20:10.291                : en:4
00:26:23.539                : en:5
00:31:08.781                : en:6
00:39:04.465                : en:7
00:48:50.925                : en:8
00:55:57.642                : en:9
01:04:17.350                : en:10
01:10:15.750                : en:11
01:17:13.250                : en:12
01:22:07.502                : en:13
01:29:12.259                : en:14
01:35:20.585                : en:15
01:42:51.534                : en:16


Джерело:


 Трекер:    Зареєстрований   

Завантажити / скачати фільм українською



відео для новачків



 Зареєстрований:   2017-02-24 04:12
 Розмір:   4.38 GB 
 Оцінка фільму:   6/10 (Голосів: 27)
   
leicheman 
Відео Гуртом - фільмокрай
Відео Гуртом - фільмокрай


З нами з: 03.07.14
Востаннє: 25.11.20
Повідомлень: 5681

2017-02-24 09:37  
Anonymous написано:
прем'єра в Україні мала відбутися 02.03.2017, але була скасована B&H Film Distribution

Ну да. Це ж не якийсь там форсаж чи 50 відтінків чорного, чого це нам його показувати.

Anonymous 







2017-02-24 12:19  
leicheman, мабуть глянули на провал у світовому прокаті (бюджет 40 млн., збори 30 млн.), людям же пофіг на проблеми ветеранів з ПТСР. Але у нас, як у воюючої країни з сотнями тисяч учасників бойових дій такий фільм варто було б показати однозначно.

Додано через 2 години 15 хвилин 16 секунд:

тут виясняється, що показ фільму відмінено і в Росії - WDSSPR (WALT DISNEY STUDIOS SONY PICTURES RELEASING) - контора, що має права на показ в СНД(!) без будь-яких пояснень прибрало стрічку з графіка показів ще наприкінці січня. Тож не виключено, що тут замішано політичну складову - ВВХ вочевидь невигідно піднімати цю тему, може боїться резонансу та небажаних для нього аналогій та висновків від перегляду фільму з боку своїх військових та ветеранів окупаційних війн.

Додано через 6 хвилин 15 секунд:

В такому випадку очевидно, що Україна знаходиться в колоніальній залежності, якщо не може обійти заборону метрополії на показ фільму. Така ж ситуація була і з фільмом "Номер 44", який був заборонений моск.владою, в т.ч. ця заборона призвела до відміни показу в Україні.

Додано через 3 хвилини 31 секунду:

Лише зусиллями наших патріотів-підпільників вдалось врятувати український дубляж того фільму https://toloka.to/tracker.php?nm=Child+44

Додано через 1 хвилину 56 секунд:

Чи встигли зробити українське озвучення "Довгої перерви Біллі Лінна" і якщо так, то чи вдасться врятувати його для суспільства наразі невідомо.

don pedro 
Попереджень: 1
Попереджень: 1 


З нами з: 29.06.11
Востаннє: 25.11.20
Повідомлень: 18165

2017-02-25 01:40  
Подивився. Тепер не дивуюсь, чому цей фільм провалився у прокаті. Середньо, але не більше. Рейтинг цілком відповідає якості фільму. Все це вже було сказано, і не одноразово, і на багато вищому творчому рівні. Як у кіно, так і у літературі. Хоча акторська гра і непогана. До українського досвіду все це особливого стосунку не має. А загалом, краще ще раз "Народженого четвертого липня" подивитись, або "Там - тут". Можна і Ремарка почитати.
shabeluka 
Новенький


З нами з: 19.09.12
Востаннє: 24.11.20
Повідомлень: 22

2017-03-05 00:07  
Круте кіно, як на мене...
[email protected] 
Відео Гуртом - підтримка та поширення
Відео Гуртом - підтримка та поширення


З нами з: 16.06.12
Востаннє: 24.11.20
Повідомлень: 1424

2017-07-16 19:14  
Anonymous написано:
Жанр: драма, воєнний

Чому воєнний, а не військовий? Це не русизм?

Anonymous 







2017-07-16 19:29  
[email protected] написано:
Це не русизм?

та ні, не русизм https://www.google.com.ua/search?q=%D0%B2%D0%BE%D1%94%D0%BD%D0%BD%D0%B8%D0%B9+site:toloka.to

Додано через 4 хвилини 16 секунд:

http://sum.in.ua/s/vojennyj
http://sum.in.ua/s/vijsjkovyj

[email protected] 
Відео Гуртом - підтримка та поширення
Відео Гуртом - підтримка та поширення


З нами з: 16.06.12
Востаннє: 24.11.20
Повідомлень: 1424

2017-07-16 20:04  
Anonymous цікаво в чому тоді різниця в значеннях між військовий і воєнний? чи це взагалі синоніми?

Додано через 4 хвилини 51 секунду:

Anonymous написано:
щоб взнати, треба клікнути по посиланнях в моєму попередньому коментарі.

Тупанув Happy Уже побачив Happy

bozuron 
Частий відвідувач


З нами з: 12.02.17
Востаннє: 22.11.20
Повідомлень: 45

2019-07-15 01:43  
встаньте хтось на роздачу.
не можу скачати

Anonymous 







2020-03-29 00:57  
Американські ветерани записали веселеньку пісеньку, закликаючи побратимів дотримуватись карантину:
https://www.youtube.com/watch?v=I3xpRZITi2w

Ваш часовий пояс: GMT + 2 Години

Нова тема   Відповісти