Недитяче кіно / Not Another Teen Movie (2001) Remux 1080p 3xUkr/Eng | Sub Eng

Нові коментарі

Нова тема   Відповісти
Автор Повідомлення
staf777 
Попереджень: 1
Попереджень: 1 


З нами з: 16.11.16
Востаннє: 15.12.18
Повідомлень: 1919

2017-02-23 10:35  
Недитяче кіно / Not Another Teen Movie (2001) Remux 1080p 3xUkr/Eng | Sub Eng

Оригінальна обкладинка

Недитяче кіно / Not Another Teen Movie (2001) Remux 1080p 3xUkr/Eng | Sub Eng
Жанр: комедія
Країна: США



Кінокомпанія: Columbia Pictures Corporation, Original Film, Neal H. Moritz Productions
Режисер: Джоіл Галлен / Joel Gallen
Актори: Кайлер Лі / Chyler Leigh, Кріс Еванс / Chris Evans, Джеймі Преслі / Jaime Pressly, Ерік Крістіан Олсен / Eric Christian Olsen, Міа Кіршнер / Mia Kirshner, Діон Річмонд / Deon Richmond, Ерік Джангманн / Eric Jungmann та інші

Сюжет:
Популярний у школі хлопець, зірка футбольної команди Джейк Вайлер, засліплений власною славою й успіхом, укладає парі зі своїми друзями.

Вайлер робить ставку на те, що може зробити з будь-якої дівчини школи королеву шкільного балу. Друзі відразу ж вибирають предмет свого жарту - зовні непривабливу художницю-любительку Джені Брігс, чий комбінезон завжди в фарбі, яка носить окуляри та збирає своє волосся у "хвіст". Джені є ізгоєм у своєму класі, проте пройшовши через низку подій, Вайлер розуміє, що закоханий у неї по вуха...


Тривалість: 01:29:00
Якість: Remux 1080p
Відео:
кодек:
розмір кадру: 1920x1080
бітрейт: 26,9 Mб/с

Аудіо # 1:
мова: українська
переклад: багатоголосий закадровий
кодек: 2.0
бітрейт: 192 кб/с

Аудіо # 2:
мова: українська
переклад: багатоголосий закадровий
кодек: 2.0
бітрейт: 192 кб/с

Аудіо # 3:
мова: українська
переклад: багатоголосий закадровий
кодек: 2.0
бітрейт: 192 кб/с

Аудіо # 4:
мова: англійська
переклад: оригінал
кодек: -HD MA 5.1
бітрейт: 4343 кб/с

Субтитри:
мова: англійська
тип: пререндерні
формат: PGS
Info
General
Unique ID : 237112949484390832925704977916000067299 (0xB2624AFF84A1844A8280309E7401DEE3)
Complete name : P:\HD українською » Фільми в HD\Комедія\Not Another Teen Movie (2001) Remux 1080p [3xUKR_ENG] [Hurtom].
Format :
Format version : Version 4 / Version 2
File size : 19.8 GiB
Duration : 1 h 29 min
Overall bit rate mode : Variable
Overall bit rate : 31.8 Mb/s
Movie name : Not Another Teen Movie (2001) Remux 1080p [3xUKR_ENG] [Hurtom]
Encoded date : UTC 2018-10-04 10:12:51
Writing application : v24.0.0 ('Beyond The Pale') 64-bit
Writing library : libebml v1.3.6 + v1.4.9
Cover : Yes
Attachments : cover.jpg

Video
ID : 1
Format : AVC
Format/Info : Advanced Video Codec
Format profile : [email protected]
Format settings : CABAC / 2 Ref Frames
Format settings, CABAC : Yes
Format settings, ReFrames : 2 frames
Codec ID : V_MPEG4/ISO/AVC
Duration : 1 h 29 min
Bit rate mode : Variable
Bit rate : 26.9 Mb/s
Width : 1 920 pixels
Height : 1 080 pixels
Display aspect ratio : 16:9
Frame rate mode : Constant
Frame rate : 23.976 (24000/1001) FPS
Color space : YUV
Chroma subsampling : 4:2:0
Bit depth : 8 bits
Scan type : Progressive
Bits/(Pixel*Frame) : 0.541
Stream size : 16.7 GiB (84%)
Default : Yes
Forced : No

Audio #1
ID : 2
Format : AC-3
Format/Info : Audio Coding 3
Codec ID : A_AC3
Duration : 1 h 29 min
Bit rate mode : Constant
Bit rate : 192 kb/s
Channel(s) : 2 channels
Channel positions : Front: L R
Sampling rate : 48.0 kHz
Frame rate : 31.250 FPS (1536 SPF)
Bit depth : 16 bits
Compression mode : Lossy
Stream size : 122 MiB (1%)
Language : Ukrainian
Service kind : Complete Main
Default : Yes
Forced : Yes

Audio #2
ID : 3
Format : AC-3
Format/Info : Audio Coding 3
Codec ID : A_AC3
Duration : 1 h 29 min
Bit rate mode : Constant
Bit rate : 192 kb/s
Channel(s) : 2 channels
Channel positions : Front: L R
Sampling rate : 48.0 kHz
Frame rate : 31.250 FPS (1536 SPF)
Bit depth : 16 bits
Compression mode : Lossy
Stream size : 122 MiB (1%)
Title : [UA-MVO-K1]
Language : Ukrainian
Service kind : Complete Main
Default : No
Forced : No

Audio #3
ID : 4
Format : AC-3
Format/Info : Audio Coding 3
Codec ID : A_AC3
Duration : 1 h 29 min
Bit rate mode : Constant
Bit rate : 192 kb/s
Channel(s) : 2 channels
Channel positions : Front: L R
Sampling rate : 48.0 kHz
Frame rate : 31.250 FPS (1536 SPF)
Bit depth : 16 bits
Compression mode : Lossy
Stream size : 122 MiB (1%)
Language : Ukrainian
Service kind : Complete Main
Default : No
Forced : No

Audio #4
ID : 5
Format :
Format/Info : Digital Theater Systems
Format profile : MA / Core
Codec ID : A_DTS
Duration : 1 h 29 min
Bit rate mode : Variable / Constant
Bit rate : 4 343 kb/s / 1 509 kb/s
Channel(s) : 6 channels
Channel positions : Front: L C R, Side: L R, LFE
Sampling rate : 48.0 kHz
Frame rate : 93.750 FPS (512 SPF)
Bit depth : 24 bits
Compression mode : Lossless / Lossy
Stream size : 2.70 GiB (14%)
Language : English
Default : No
Forced : No

Text
ID : 6
Format : PGS
Muxing mode : zlib
Codec ID : S_HDMV/PGS
Codec ID/Info : Picture based subtitle format used on BDs/HD-DVDs
Duration : 1 h 28 min
Bit rate : 29.7 kb/s
Count of elements : 2011
Stream size : 18.8 MiB (0%)
Language : English
Default : No
Forced : No
Скріншоти





Джерело: &

За українські доріжки подяка п.: Breniak, LIONN, xslim, SweetN, Neytreenor
За допомогу в створені реліза дякую пану drop_plz
Особиста оцінка: 8 - мені сподобалося
Недитяче кіно / Not Another Teen Movie (2001) Remux 1080p 3xUkr/Eng | Sub Eng


Золотий реліз (завантажене не впливає на рейтинг)
 Трекер:    Зареєстрований   

Завантажити / скачати фільм українською



відео для новачків



 Зареєстрований:   2018-10-04 13:04
 Розмір:   19.8 GB 
 Оцінка фільму:   8/10 (Голосів: 16)
   
boroznaya 
Попереджень: 1
Попереджень: 1 


З нами з: 02.11.12
Востаннє: 15.12.18
Повідомлень: 2963

2017-03-11 10:48  
Сум та й годі... Це видовище навіть комедією назвати важко...
staf777 
Попереджень: 1
Попереджень: 1 


З нами з: 16.11.16
Востаннє: 15.12.18
Повідомлень: 1919

2018-10-04 13:04  
Додав доріжку 
Ваш часовий пояс: GMT + 2 Години

Нова тема   Відповісти