Недитяче кіно / Not Another Teen Movie (2001) Remux 1080p 2xUkr/Eng | Sub Eng

Нові коментарі

Нова тема   Відповісти
Останній раз роздавалося staf777 (2017-08-16)
Автор Повідомлення
staf777 
Відео Гуртом - підтримка та поширення
Відео Гуртом - підтримка та поширення


З нами з: 16.11.16
Востаннє: 16.08.17
Повідомлень: 522

2017-02-23 11:35  
Недитяче кіно / Not Another Teen Movie (2001) Remux 1080p 2xUkr/Eng | Sub Eng

Оригінальна обкладинка

Недитяче кіно / Not Another Teen Movie (2001) Remux 1080p 2xUkr/Eng | Sub Eng
Жанр: комедія
Країна: США



Кінокомпанія: Columbia Pictures Corporation, Original Film, Neal H. Moritz Productions
Режисер: Джоіл Галлен / Joel Gallen
Актори: Кайлер Лі / Chyler Leigh, Кріс Еванс / Chris Evans, Джеймі Преслі / Jaime Pressly, Ерік Крістіан Олсен / Eric Christian Olsen, Міа Кіршнер / Mia Kirshner, Діон Річмонд / Deon Richmond, Ерік Джангманн / Eric Jungmann та інші

Сюжет:
Популярний у школі хлопець, зірка футбольної команди Джейк Вайлер, засліплений власною славою й успіхом, укладає парі зі своїми друзями.

Вайлер робить ставку на те, що може зробити з будь-якої дівчини школи королеву шкільного балу. Друзі відразу ж вибирають предмет свого жарту - зовні непривабливу художницю-любительку Джені Брігс, чий комбінезон завжди в фарбі, яка носить окуляри та збирає своє волосся у "хвіст". Джені є ізгоєм у своєму класі, проте пройшовши через низку подій, Вайлер розуміє, що закоханий у неї по вуха...


Тривалість: 01:29:00
Якість: Remux 1080p
Відео:
кодек:
розмір кадру: 1920x1080
бітрейт: 26905 кб/с

Аудіо # 1:
мова: українська
переклад: багатоголосий закадровий
кодек: 2.0
бітрейт: 192 кб/с

Аудіо # 2:
мова: українська
переклад: багатоголосий закадровий
кодек: 2.0
бітрейт: 192 кб/с

Аудіо # 3:
мова: англійська
переклад: оригінал
кодек: -HD MA 5.1
бітрейт: 4343 кб/с

Субтитри:
мова: англійська
тип: пререндерні
формат: PGS
Info
General
Unique ID : 217407451689408609920993636171912501998 (0xA38F26F24395C90EAA6187F760D2DAEE)
Complete name : P:\HDClub\NOT_ANOTHER_TEEN_MOVIE_2001_REMUX_HDCLUB\BDMV\STREAM\Not Another Teen Movie (2001) [2xUkr,Eng sub.Ukr,Eng] Remux 1080p [Hurtom].
Format :
Format version : Version 4 / Version 2
File size : 19.7 GiB
Duration : 1 h 29 min
Overall bit rate mode : Variable
Overall bit rate : 31.6 Mb/s
Movie name : Not Another Teen Movie (2001) [2xUkr,Eng sub.Ukr,Eng] Remux 1080p [Hurtom]
Encoded date : UTC 2017-02-23 15:26:20
Writing application : mkvmerge v9.8.0 ('Kuglblids') 64bit
Writing library : libebml v1.3.4 + libmatroska v1.4.5

Video
ID : 1
Format : AVC
Format/Info : Advanced Video Codec
Format profile : [email protected]
Format settings, CABAC : Yes
Format settings, ReFrames : 2 frames
Codec ID : V_MPEG4/ISO/AVC
Duration : 1 h 29 min
Bit rate mode : Variable
Bit rate : 26.9 Mb/s
Width : 1 920 pixels
Height : 1 080 pixels
Display aspect ratio : 16:9
Frame rate mode : Constant
Frame rate : 23.976 (24000/1001) FPS
Color space : YUV
Chroma subsampling : 4:2:0
Bit depth : 8 bits
Scan type : Progressive
Bits/(Pixel*Frame) : 0.541
Stream size : 16.7 GiB (85%)
Default : Yes
Forced : No

Audio #1
ID : 2
Format : AC-3
Format/Info : Audio Coding 3
Mode extension : CM (complete main)
Format settings, Endianness : Big
Codec ID : A_AC3
Duration : 1 h 29 min
Bit rate mode : Constant
Bit rate : 192 kb/s
Channel(s) : 2 channels
Channel positions : Front: L R
Sampling rate : 48.0 kHz
Frame rate : 31.250 FPS (1536 spf)
Bit depth : 16 bits
Compression mode : Lossy
Stream size : 122 MiB (1%)
Language : Ukrainian
Default : Yes
Forced : Yes

Audio #2
ID : 3
Format : AC-3
Format/Info : Audio Coding 3
Mode extension : CM (complete main)
Format settings, Endianness : Big
Codec ID : A_AC3
Duration : 1 h 29 min
Bit rate mode : Constant
Bit rate : 192 kb/s
Channel(s) : 2 channels
Channel positions : Front: L R
Sampling rate : 48.0 kHz
Frame rate : 31.250 FPS (1536 spf)
Bit depth : 16 bits
Compression mode : Lossy
Stream size : 122 MiB (1%)
Language : Ukrainian
Default : No
Forced : No

Audio #3
ID : 4
Format :
Format/Info : Digital Theater Systems
Format profile : MA / Core
Mode : 16
Format settings, Endianness : Big
Codec ID : A_DTS
Duration : 1 h 29 min
Bit rate mode : Variable / Constant
Bit rate : 4 343 kb/s / 1 509 kb/s
Channel(s) : 6 channels
Channel positions : Front: L C R, Side: L R, LFE
Sampling rate : 48.0 kHz
Frame rate : 93.750 FPS (512 spf)
Bit depth : 24 bits
Compression mode : Lossless / Lossy
Stream size : 2.70 GiB (14%)
Language : English
Default : No
Forced : No

Text
ID : 5
Format : PGS
Muxing mode : zlib
Codec ID : S_HDMV/PGS
Codec ID/Info : Picture based subtitle format used on BDs/HD-DVDs
Duration : 1 h 28 min
Bit rate : 13.0 kb/s
Count of elements : 2011
Stream size : 8.25 MiB (0%)
Language : English
Default : No
Forced : No
Скріншоти



Джерело: &
Подяка Breniak, LIONN, xslim, SweetN за українські доріжки та zgryvus за українізований постер.

Особиста оцінка: 8 - мені сподобалося
Недитяче кіно / Not Another Teen Movie (2001) Remux 1080p 2xUkr/Eng | Sub Eng


Золотий реліз (завантажене не впливає на рейтинг)
 Трекер:    Зареєстрований   

Завантажити / скачати фільм українською



відео для новачків



 Зареєстрований:   2017-02-23 20:15
 Розмір:   19.68 GB 
 Оцінка фільму:   9.1/10 (Голосів: 8)
   
Інші релізи
boroznaya 
VIP


З нами з: 02.11.12
Востаннє: 19.08.17
Повідомлень: 2265

2017-03-11 11:48  
Сум та й годі... Це видовище навіть комедією назвати важко...
Ваш часовий пояс: GMT + 2 Години

Нова тема   Відповісти