Зарафа / Zarafa (2012) 720p Ukr/Fre | Sub Eng/Fre

Нові коментарі

Нова тема   Відповісти
Автор Повідомлення
Anonymous 







2017-02-22 20:02  
Зарафа / Zarafa (2012) 720p Ukr/Fre | Sub Eng/Fre



Жанр: анімація, сімейний
Країна: Франція, Бельгія



Кінокомпанія: Prima Linea Productions, Pathé, France 3 Cinéma, Chaocorp, Scope Pictures
Режисер: Ремі Безансон / Rémi Bezançon, Жан-Крістоф Лі / Jean-Christophe Lie
Актори: Макс Ренаудін Пратт / Max Renaudin Pratt, Симон Абкарян / Simon Abkarian, Франсуа-Ксав'є Демезон / François-Xavier Demaison, Вернон Добчеф / Vernon Dobtcheff, Роже Дюма / Roger Dumas, Роніт Елькабец / Ronit Elkabetz, Мохамед Феллаґ / Mohamed Fellag, Дебора Франсуа / Déborah François, Тьєррі Фремон / Thierry Frémont, Філіп Мор'є-Жану / Philippe Morier-Genoud та інші

Сюжет:
Дідусь розповідає своїм онукам історію Макі, хлопчика, який подолав шлях з Африки в Париж: перетнув пустелю, зустрів піратів, потрапляв в різні небезпечні ситуації, в пошуках свого кращого друга - Зарафи. Її забрали люди єгипетського паші Мухаммеда Алі, щоб подарувати тварину французькому королю Карлу X.


Рейтинг MPAA: PG - рекомендується присутність батьків
Вікова категорія: 0+

Тривалість: 01:18:33
Якість: 720p
Відео:
кодек:
розмір кадру: 1280 х 544
бітрейт: 3196 кб/с [crf=15]

Аудіо # 1:
мова: українська
переклад: багатоголосий закадровий
кодек: 2.0 (стерео)
бітрейт: 192 кб/с

Аудіо # 2:
мова: французька
переклад: оригінал
кодек: 5.1
бітрейт: 640 кб/с

Субтитри # 1:
мова: англійська
тип: програмні (м'які)
формат: *.srt

Субтитри # 2:
мова: французька (SDH)
тип: програмні (м'які)
формат: *.srt

Збережено оригінальні розділи, як на Blu-ray
Info та log
Код:
Format                      :
Format version              : Version 4 / Version 2
File size                   : 2.21 GiB
Duration                    : 1 h 18 min
Overall bit rate            : 4 030 kb/s

Video
ID                          : 1
Format                      : AVC
Format/Info                 : Advanced Video Codec
Format profile              : [email protected]
Format settings, CABAC      : Yes
Format settings, ReFrames   : 12 frames
Codec ID                    : V_MPEG4/ISO/AVC
Duration                    : 1 h 18 min
Bit rate                    : 3 196 kb/s
Width                       : 1 280 pixels
Height                      : 544 pixels
Display aspect ratio        : 2.35:1
Frame rate mode             : Constant
Frame rate                  : 24.000 FPS
Color space                 : YUV
Chroma subsampling          : 4:2:0
Bit depth                   : 8 bits
Scan type                   : Progressive
Bits/(Pixel*Frame)          : 0.191
Stream size                 : 1.75 GiB (79%)
Title                       : Зарафа / Zarafa (2012) 720p [HDClub-Skazhutin]
Writing library             : core 125 r2208kMod d9d2288
Encoding settings           : cabac=1 / ref=12 / deblock=1:-1:-1 / analyse=0x3:0x113 / me=umh / subme=11 / psy=1 / fade_compensate=0.00 / psy_rd=1.00:0.05 / mixed_ref=1 / me_range=48 / chroma_me=1 / trellis=2 / 8x8dct=1 / cqm=0 / deadzone=21,11 / fast_pskip=1 / chroma_qp_offset=-3 / threads=12 / lookahead_threads=2 / sliced_threads=0 / nr=0 / decimate=1 / interlaced=0 / bluray_compat=0 / constrained_intra=0 / bframes=12 / b_pyramid=2 / b_adapt=2 / b_bias=0 / direct=1 / weightb=1 / open_gop=0 / weightp=2 / keyint=250 / keyint_min=24 / scenecut=40 / intra_refresh=0 / rc_lookahead=40 / rc=crf / mbtree=0 / crf=15.0000 / qcomp=0.60 / qpmin=0 / qpmax=69 / qpstep=4 / vbv_maxrate=50000 / vbv_bufsize=62500 / crf_max=0.0 / nal_hrd=none / ip_ratio=1.40 / pb_ratio=1.30 / aq=2:1.00
Language                    : French
Default                     : Yes
Forced                      : No
Color range                 : Limited
Matrix coefficients         : BT.709

Audio #1
ID                          : 2
Format                      : AC-3
Format/Info                 : Audio Coding 3
Mode extension              : CM (complete main)
Format settings, Endianness : Big
Codec ID                    : A_AC3
Duration                    : 1 h 18 min
Bit rate mode               : Constant
Bit rate                    : 192 kb/s
Channel(s)                  : 2 channels
Channel positions           : Front: L R
Sampling rate               : 48.0 kHz
Frame rate                  : 31.250 FPS (1536 spf)
Bit depth                   : 16 bits
Compression mode            : Lossy
Stream size                 : 108 MiB (5%)
Title                       : MVO [VolyaCine+Kids] 2.0 [stereo] 192 kbps [Hurtom-Gelios,Sando7]
Language                    : Ukrainian
Default                     : Yes
Forced                      : Yes

Audio #2
ID                          : 3
Format                      : AC-3
Format/Info                 : Audio Coding 3
Mode extension              : CM (complete main)
Format settings, Endianness : Big
Codec ID                    : A_AC3
Duration                    : 1 h 18 min
Bit rate mode               : Constant
Bit rate                    : 640 kb/s
Channel(s)                  : 6 channels
Channel positions           : Front: L C R, Side: L R, LFE
Sampling rate               : 48.0 kHz
Frame rate                  : 31.250 FPS (1536 spf)
Bit depth                   : 16 bits
Compression mode            : Lossy
Stream size                 : 360 MiB (16%)
Title                       : Original, 5.1 640 Kbps
Language                    : French
Default                     : No
Forced                      : No

Text #1
ID                          : 4
Format                      : UTF-8
Codec ID                    : S_TEXT/UTF8
Codec ID/Info               : UTF-8 Plain Text
Duration                    : 1 h 12 min
Bit rate                    : 31 b/s
Count of elements           : 659
Stream size                 : 16.9 KiB (0%)
Title                       : Eng full
Language                    : English
Default                     : No
Forced                      : No

Text #2
ID                          : 5
Format                      : UTF-8
Codec ID                    : S_TEXT/UTF8
Codec ID/Info               : UTF-8 Plain Text
Duration                    : 1 h 17 min
Bit rate                    : 40 b/s
Count of elements           : 958
Stream size                 : 22.8 KiB (0%)
Title                       : Fre SDH
Language                    : French
Default                     : No
Forced                      : No

Menu
00:00:00.000                : fr:1. Maki
00:09:27.583                : fr:2. Hassan
00:15:48.125                : fr:3. Mahmoud
00:21:48.667                : fr:4. Malaterre
00:26:28.083                : fr:5. Le Sultan
00:32:46.208                : fr:6. Bouboulina
00:39:47.500                : fr:7. Tenir sa promesse
00:49:37.667                : fr:8. Paris
00:58:24.292                : fr:9. Perdus
01:02:33.708                : fr:10. On rentre à la maison
01:09:56.167                : fr:11. Épilogue
01:13:39.708                : fr:12. Générique de fin


Код:
y4m [info]: 1280x544p 1:1 @ 24/1 fps (cfr)
[info]: using SAR=1/1
[info]: using cpu capabilities: MMX2 SSE2Fast SSSE3 FastShuffle SSE4.2 AVX
[info]: profile High, level 4.1
[info]: frame I:1182  Avg QP:11.46  size:174851
[info]: frame P:26780 Avg QP:13.13  size: 34152
[info]: frame B:85151 Avg QP:15.39  size:  8942
[info]: consecutive B-frames:  2.2%  1.8%  6.9% 53.1% 15.6% 11.1%  2.2%  1.7%  1.2%  0.9%  0.8%  1.4%  0.9%
[info]: mb I  I16..4: 12.4% 49.8% 37.8%
[info]: mb P  I16..4:  0.4%  4.5%  1.2%  P16..4: 29.1% 27.8% 17.9%  0.0%  0.0%    skip:19.1%
[info]: mb B  I16..4:  0.0%  0.3%  0.1%  B16..8: 26.1% 15.0%  4.1%  direct: 5.1%  skip:49.3%  L0:44.6% L1:47.0% BI: 8.4%
[info]: 8x8 transform intra:64.0% inter:34.7%
[info]: coded y,uvDC,uvAC intra: 95.8% 79.8% 74.3% inter: 19.2% 11.9% 7.0%
[info]: i16 v,h,dc,p: 12% 18% 35% 35%
[info]: i8 v,h,dc,ddl,ddr,vr,hd,vl,hu: 11% 15% 20%  8%  9%  8%  9%  9% 12%
[info]: i4 v,h,dc,ddl,ddr,vr,hd,vl,hu: 11% 11%  6% 10% 13% 12% 12% 11% 13%
[info]: i8c dc,h,v,p: 46% 31% 14%  9%
[info]: Weighted P-Frames: Y:3.9% UV:1.8%
[info]: ref P L0: 45.3%  5.6% 17.0%  6.8%  5.9%  4.6%  4.3%  2.4%  2.3%  1.9%  1.9%  1.8%  0.3%  0.0%
[info]: ref B L0: 58.6% 14.7%  8.2%  4.8%  3.5%  3.1%  2.6%  1.7%  1.4%  0.9%  0.5%
[info]: ref B L1: 91.5%  8.5%
[info]: kb/s:3195.67
Оригінал <----------> Ріп






Джерело: &
Подяка Sando7 та Gelios'у за українську доріжку та постер

Особиста оцінка: 10 - рекомендую всім дітям та їх батькам

ЗАЛИШАЙТЕСЬ ЯКОМОГА ДОВШЕ НА РОЗДАЧІ
ЗАВАНТАЖИВ САМ - ДАЙ ЗАВАНТАЖИТИ ІНШИМ!


 Трекер:    Зареєстрований   

Завантажити / скачати мультфільм українською



відео для новачків



 Зареєстрований:   2017-02-22 21:18
 Розмір:   2.21 GB 
 Оцінка мультфільму:   4.9/10 (Голосів: 18)
   
Інші релізи
   Зарафа / Zarafa (2012) 1080p Ukr/Fre | Sub Eng/Fre igor911  7 / 0   4.56 GB   2017-02-22 20:58 
   Зарафа / Zarafa (2012) Ukr/Fra Gelios  23 / 0   1.45 GB   2017-02-22 16:46 
Ваш часовий пояс: GMT + 2 Години

Нова тема   Відповісти