Зарафа / Zarafa (2012) 1080p Ukr/Fre | Sub Eng/Fre

Нові коментарі

Нова тема   Відповісти
Автор Повідомлення
Anonymous 







2017-02-22 19:36  
Зарафа / Zarafa (2012) 1080p Ukr/Fre | Sub Eng/Fre



Жанр: анімація, сімейний
Країна: Франція, Бельгія



Кінокомпанія: Prima Linea Productions, Pathé, France 3 Cinéma, Chaocorp, Scope Pictures
Режисер: Ремі Безансон / Rémi Bezançon, Жан-Крістоф Лі / Jean-Christophe Lie
Актори: Макс Ренаудін Пратт / Max Renaudin Pratt, Симон Абкарян / Simon Abkarian, Франсуа-Ксав'є Демезон / François-Xavier Demaison, Вернон Добчеф / Vernon Dobtcheff, Роже Дюма / Roger Dumas, Роніт Елькабец / Ronit Elkabetz, Мохамед Феллаґ / Mohamed Fellag, Дебора Франсуа / Déborah François, Тьєррі Фремон / Thierry Frémont, Філіп Мор'є-Жану / Philippe Morier-Genoud та інші

Сюжет:
Дідусь розповідає своїм онукам історію Макі, хлопчика, який подолав шлях з Африки в Париж: перетнув пустелю, зустрів піратів, потрапляв в різні небезпечні ситуації, в пошуках свого кращого друга - Зарафи. Її забрали люди єгипетського паші Мухаммеда Алі, щоб подарувати тварину французькому королю Карлу X.


Рейтинг MPAA: PG - рекомендується присутність батьків
Вікова категорія: 0+

Тривалість: 01:18:33
Якість: 1080p
Відео:
кодек:
розмір кадру: 1920 х 816
бітрейт: 7250 кб/с [crf=15.5]

Аудіо # 1:
мова: українська
переклад: багатоголосий закадровий
кодек: 2.0 (стерео)
бітрейт: 192 кб/с

Аудіо # 2:
мова: французька
переклад: оригінал
кодек: 5.1
бітрейт: 640 кб/с

Аудіо # 3:
мова: французька
переклад: коментарі / описова
кодек: 2.0
бітрейт: 224 кб/с

Субтитри # 1:
мова: англійська
тип: програмні (м'які)
формат: *.srt

Субтитри # 2:
мова: французька (SDH)
тип: програмні (м'які)
формат: *.srt

Збережено оригінальні розділи, як на Blu-ray
Info та log
Код:
Format                      :
Format version              : Version 4 / Version 2
File size                   : 4.56 GiB
Duration                    : 1 h 18 min
Overall bit rate            : 8 309 kb/s

Video
ID                          : 1
Format                      : AVC
Format/Info                 : Advanced Video Codec
Format profile              : [email protected]
Format settings, CABAC      : Yes
Format settings, ReFrames   : 5 frames
Codec ID                    : V_MPEG4/ISO/AVC
Duration                    : 1 h 18 min
Bit rate                    : 7 250 kb/s
Width                       : 1 920 pixels
Height                      : 816 pixels
Display aspect ratio        : 2.35:1
Frame rate mode             : Constant
Frame rate                  : 24.000 FPS
Color space                 : YUV
Chroma subsampling          : 4:2:0
Bit depth                   : 8 bits
Scan type                   : Progressive
Bits/(Pixel*Frame)          : 0.193
Stream size                 : 3.98 GiB (87%)
Title                       : Зарафа / Zarafa (2012) 1080p [HDClub-Skazhutin]
Writing library             : core 125 r2208kMod d9d2288
Encoding settings           : cabac=1 / ref=5 / deblock=1:-1:-1 / analyse=0x3:0x113 / me=umh / subme=11 / psy=1 / fade_compensate=0.00 / psy_rd=1.00:0.05 / mixed_ref=1 / me_range=48 / chroma_me=1 / trellis=2 / 8x8dct=1 / cqm=0 / deadzone=21,11 / fast_pskip=1 / chroma_qp_offset=-3 / threads=12 / lookahead_threads=2 / sliced_threads=0 / nr=0 / decimate=1 / interlaced=0 / bluray_compat=0 / constrained_intra=0 / bframes=9 / b_pyramid=2 / b_adapt=2 / b_bias=0 / direct=1 / weightb=1 / open_gop=0 / weightp=2 / keyint=250 / keyint_min=24 / scenecut=40 / intra_refresh=0 / rc_lookahead=40 / rc=crf / mbtree=0 / crf=15.5000 / qcomp=0.60 / qpmin=0 / qpmax=69 / qpstep=4 / vbv_maxrate=50000 / vbv_bufsize=62500 / crf_max=0.0 / nal_hrd=none / ip_ratio=1.40 / pb_ratio=1.30 / aq=2:1.00
Language                    : French
Default                     : Yes
Forced                      : No
Color range                 : Limited
Matrix coefficients         : BT.709

Audio #1
ID                          : 2
Format                      : AC-3
Format/Info                 : Audio Coding 3
Mode extension              : CM (complete main)
Format settings, Endianness : Big
Codec ID                    : A_AC3
Duration                    : 1 h 18 min
Bit rate mode               : Constant
Bit rate                    : 192 kb/s
Channel(s)                  : 2 channels
Channel positions           : Front: L R
Sampling rate               : 48.0 kHz
Frame rate                  : 31.250 FPS (1536 spf)
Bit depth                   : 16 bits
Compression mode            : Lossy
Stream size                 : 108 MiB (2%)
Title                       : MVO [VolyaCine+Kids] 2.0 [stereo] 192 kbps [Hurtom-Gelios,Sando7]
Language                    : Ukrainian
Default                     : Yes
Forced                      : Yes

Audio #2
ID                          : 3
Format                      : AC-3
Format/Info                 : Audio Coding 3
Mode extension              : CM (complete main)
Format settings, Endianness : Big
Codec ID                    : A_AC3
Duration                    : 1 h 18 min
Bit rate mode               : Constant
Bit rate                    : 640 kb/s
Channel(s)                  : 6 channels
Channel positions           : Front: L C R, Side: L R, LFE
Sampling rate               : 48.0 kHz
Frame rate                  : 31.250 FPS (1536 spf)
Bit depth                   : 16 bits
Compression mode            : Lossy
Stream size                 : 360 MiB (8%)
Title                       : Original, 5.1 640 Kbps
Language                    : French
Default                     : No
Forced                      : No

Audio #3
ID                          : 4
Format                      : AC-3
Format/Info                 : Audio Coding 3
Mode extension              : CM (complete main)
Format settings, Endianness : Big
Codec ID                    : A_AC3
Duration                    : 1 h 18 min
Bit rate mode               : Constant
Bit rate                    : 224 kb/s
Channel(s)                  : 2 channels
Channel positions           : Front: L R
Sampling rate               : 48.0 kHz
Frame rate                  : 31.250 FPS (1536 spf)
Bit depth                   : 16 bits
Compression mode            : Lossy
Stream size                 : 126 MiB (3%)
Title                       : Commentary, 2.0 224 kbps
Language                    : French
Default                     : No
Forced                      : No

Text #1
ID                          : 5
Format                      : UTF-8
Codec ID                    : S_TEXT/UTF8
Codec ID/Info               : UTF-8 Plain Text
Duration                    : 1 h 12 min
Bit rate                    : 31 b/s
Count of elements           : 659
Stream size                 : 16.9 KiB (0%)
Title                       : Eng full
Language                    : English
Default                     : No
Forced                      : No

Text #2
ID                          : 6
Format                      : UTF-8
Codec ID                    : S_TEXT/UTF8
Codec ID/Info               : UTF-8 Plain Text
Duration                    : 1 h 17 min
Bit rate                    : 40 b/s
Count of elements           : 958
Stream size                 : 22.8 KiB (0%)
Title                       : Fre SDH
Language                    : French
Default                     : No
Forced                      : No

Menu
00:00:00.000                : fr:1. Maki
00:09:27.583                : fr:2. Hassan
00:15:48.125                : fr:3. Mahmoud
00:21:48.667                : fr:4. Malaterre
00:26:28.083                : fr:5. Le Sultan
00:32:46.208                : fr:6. Bouboulina
00:39:47.500                : fr:7. Tenir sa promesse
00:49:37.667                : fr:8. Paris
00:58:24.292                : fr:9. Perdus
01:02:33.708                : fr:10. On rentre à la maison
01:09:56.167                : fr:11. Épilogue
01:13:39.708                : fr:12. Générique de fin


Код:
y4m [info]: 1920x816p 1:1 @ 24/1 fps (cfr)
[info]: using SAR=1/1
[info]: using cpu capabilities: MMX2 SSE2Fast SSSE3 FastShuffle SSE4.2 AVX
[info]: profile High, level 4.1
[info]: frame I:1177  Avg QP:11.61  size:340708
[info]: frame P:27876 Avg QP:13.10  size: 78174
[info]: frame B:84060 Avg QP:15.39  size: 20119
[info]: consecutive B-frames:  2.7%  2.0%  9.0% 48.9% 20.7% 12.9%  2.1%  1.1%  0.3%  0.3%
[info]: mb I  I16..4: 14.0% 56.5% 29.5%
[info]: mb P  I16..4:  0.6%  6.3%  1.3%  P16..4: 30.0% 28.9% 16.1%  0.0%  0.0%    skip:16.8%
[info]: mb B  I16..4:  0.1%  0.5%  0.1%  B16..8: 28.1% 14.9%  3.5%  direct: 6.0%  skip:46.8%  L0:41.7% L1:48.3% BI:10.0%
[info]: 8x8 transform intra:70.7% inter:34.6%
[info]: coded y,uvDC,uvAC intra: 95.7% 80.0% 73.4% inter: 22.2% 13.6% 7.6%
[info]: i16 v,h,dc,p: 13% 17% 34% 36%
[info]: i8 v,h,dc,ddl,ddr,vr,hd,vl,hu: 12% 15% 17%  8%  9%  8%  9% 10% 12%
[info]: i4 v,h,dc,ddl,ddr,vr,hd,vl,hu: 10% 11%  6% 10% 14% 13% 12% 11% 12%
[info]: i8c dc,h,v,p: 47% 28% 16%  9%
[info]: Weighted P-Frames: Y:3.5% UV:1.7%
[info]: ref P L0: 52.6%  6.3% 21.6%  9.1%  9.0%  1.3%  0.0%
[info]: ref B L0: 70.4% 19.5%  7.4%  2.8%
[info]: ref B L1: 92.6%  7.4%
[info]: kb/s:7250.34
Оригінал <----------> Ріп





Джерело: &
Подяка Sando7 та Gelios'у за українську доріжку та постер

Особиста оцінка: 10 - рекомендую всім дітям та їх батькам

ЗАЛИШАЙТЕСЬ ЯКОМОГА ДОВШЕ НА РОЗДАЧІ
ЗАВАНТАЖИВ САМ - ДАЙ ЗАВАНТАЖИТИ ІНШИМ!


 Трекер:    Зареєстрований   

Завантажити / скачати мультфільм українською



відео для новачків



 Зареєстрований:   2017-02-22 20:58
 Розмір:   4.56 GB 
 Оцінка мультфільму:   4/10 (Голосів: 15)
   
Інші релізи
   Зарафа / Zarafa (2012) 720p Ukr/Fre | Sub Eng/Fre igor911  5 / 0   2.21 GB   2017-02-22 21:18 
   Зарафа / Zarafa (2012) Ukr/Fra Gelios  21 / 0   1.45 GB   2017-02-22 16:46 
Ваш часовий пояс: GMT + 2 Години

Нова тема   Відповісти