Університет монстрів / Monsters University (2013) Remux 1080p Ukr/Eng | Sub Ukr/Eng

Нові коментарі

Нова тема   Відповісти
Автор Повідомлення
Argentum 
Свій


З нами з: 25.09.11
Востаннє: 20.08.17
Повідомлень: 66

2017-02-22 15:53  
Університет монстрів / Monsters University (2013) Remux 1080p Ukr/Eng | Sub Ukr/Eng

Альтернативні постери










повнорозмірні зображення відкриються по кліку (з натиснутим CTRL чи кліком середньою кнопкою мишки - у новій вкладці)

Жанр: анімація, комедія, пригодницький, сімейний
Країна: США



Кінокомпанія: Walt Disney Pictures, Pixar Animation Studios
Режисер: Ден Скенлон / Dan Scanlon
Актори: Джон Ґудмен / John Goodman, Біллі Крістал / Billy Crystal, Стів Бушемі / Steve Buscemi, Гелен Міррен / Helen Mirren, Пітер Сон / Peter Sohn, Джоель Мюррей / Joel Murray, Шон Гейс / Sean Hayes, Дейв Фолі / Dave Foley, Чарлі Дей / Charlie Day, Альфред Моліна / Alfred Molina

Сюжет:
Майк і Саллі, герої відомої майже кожному анімаційної стрічки "Корпорація монстрів" не завжди були друзями. Цей мультфільм розповість, як ця дивна парочка зав'язала знайомство. Вперше вони познайомилися ще в коледжі, куди пішли вивчати вищі аспекти по Ляканню дітей. Вони були повною протилежністю один одному і навіть ворогували між собою, поки їх не звела спільна робота по "диплому", яка не обійшлася без пригод. Саме спільне рішення проблеми і здружило невротика Майка і здорованя Саллі.


Тривалість: 01:43:47
Якість: Remux 1080p
Відео:
кодек:
розмір кадру: 1920 х 1080
бітрейт: ~ 23546 кб/с

Аудіо # 1:
мова: українська
переклад: професійний дубльований
кодек: 5.1
бітрейт: 384 кб/с

Аудіо # 2:
мова: англійська
переклад: оригінал
кодек: Dolby TrueHD 7.1
бітрейт: 4426 кб/с

Аудіо # 3:
мова: англійська
переклад: оригінал
кодек: 5.1
бітрейт: 640 кб/с

Субтитри:
мова: українська
тип: програмні (м'які)
формат: *.srt

Субтитри:
мова: англійська
тип: програмні (м'які)
формат: *.srt
Info
General
Unique ID : 111575565195959178399460182001442965079 (0x53F0AC15C6C7C9DBAD8460A65F254657)
Complete name : /home/jack/Videos/My/Monsters University/Monsters University (2013) [Ukr, Eng] Remux 1080p [Hurtom].
Format :
Format version : Version 4 / Version 2
File size : 21.1 GiB
Duration : 1h 44mn
Overall bit rate mode : Variable
Overall bit rate : 29.0 Mbps
Movie name : Monsters University (2013) - Release for HURTOM.COM
Encoded date : UTC 2017-02-21 10:15:36
Writing application : mkvmerge v9.9.0 ('Pick Up') 64bit
Writing library : libebml v1.3.4 + libmatroska v1.4.5
Cover : Yes
Attachments : xlog.txt / cover.jpg

Video
ID : 1
Format : AVC
Format/Info : Advanced Video Codec
Format profile : [email protected]
Format settings, CABAC : Yes
Format settings, ReFrames : 4 frames
Codec ID : V_MPEG4/ISO/AVC
Duration : 1h 43mn
Bit rate mode : Variable
Bit rate : 23.6 Mbps
Maximum bit rate : 31.5 Mbps
Width : 1 920 pixels
Height : 1 080 pixels
Display aspect ratio : 16:9
Frame rate mode : Constant
Frame rate : 23.976 (24000/1001) fps
Color space : YUV
Chroma subsampling : 4:2:0
Bit depth : 8 bits
Scan type : Progressive
Bits/(Pixel*Frame) : 0.475
Stream size : 17.1 GiB (81%)
Default : Yes
Forced : No

Audio #1
ID : 2
Format : AC-3
Format/Info : Audio Coding 3
Mode extension : CM (complete main)
Format settings, Endianness : Big
Codec ID : A_AC3
Duration : 1h 44mn
Bit rate mode : Constant
Bit rate : 384 Kbps
Channel(s) : 6 channels
Channel positions : Front: L C R, Side: L R, LFE
Sampling rate : 48.0 KHz
Frame rate : 31.250 fps (1536 spf)
Compression mode : Lossy
Stream size : 286 MiB (1%)
Title : Дубляж, iTunes
Language : Ukrainian
Default : Yes
Forced : No

Audio #2
ID : 3
Format : TrueHD
Codec ID : A_TRUEHD
Duration : 1h 43mn
Bit rate mode : Variable
Bit rate : 4 426 Kbps
Maximum bit rate : 5 751 Kbps
Channel(s) : 8 channels
Channel positions : Front: L C R, Side: L R, Back: L R, LFE
Sampling rate : 48.0 KHz
Frame rate : 1 200.000 fps (40 spf)
Compression mode : Lossless
Stream size : 3.21 GiB (15%)
Language : English
Default : No
Forced : No

Audio #3
ID : 4
Format : AC-3
Format/Info : Audio Coding 3
Mode extension : CM (complete main)
Format settings, Endianness : Big
Codec ID : A_AC3
Duration : 1h 43mn
Bit rate mode : Constant
Bit rate : 640 Kbps
Channel(s) : 6 channels
Channel positions : Front: L C R, Side: L R, LFE
Sampling rate : 48.0 KHz
Frame rate : 31.250 fps (1536 spf)
Compression mode : Lossy
Stream size : 475 MiB (2%)
Language : English
Default : No
Forced : No

Text #1
ID : 5
Format : UTF-8
Codec ID : S_TEXT/UTF8
Codec ID/Info : UTF-8 Plain Text
Duration : 1h 42mn
Bit rate : 90 bps
Count of elements : 1366
Stream size : 68.3 KiB (0%)
Language : Ukrainian
Default : No
Forced : No

Text #2
ID : 6
Format : UTF-8
Codec ID : S_TEXT/UTF8
Codec ID/Info : UTF-8 Plain Text
Duration : 1h 42mn
Bit rate : 56 bps
Count of elements : 1367
Stream size : 42.4 KiB (0%)
Language : English
Default : No
Forced : No
Скріншоти


Джерело: &
Особиста оцінка: 8 - мені сподобалося


Золотий реліз (завантажене не впливає на рейтинг)
 Трекер:    Зареєстрований   

Завантажити / скачати мультфільм українською



відео для новачків



 Зареєстрований:   2017-02-22 15:53
 Розмір:   21.13 GB 
 Оцінка мультфільму:   9/10 (Голосів: 9)
   
geroyasfalta 
Свій


З нами з: 20.06.11
Востаннє: 21.08.17
Повідомлень: 51

2017-04-08 11:38  
так тут оригінал Dolby чи ?
igor911 
Відео Гуртом
Відео Гуртом


З нами з: 18.01.08
Востаннє: 21.08.17
Повідомлень: 7307

2017-04-08 11:40  
geroyasfalta, а з опису та медіаінфо хіба не зрозуміло?
geroyasfalta 
Свій


З нами з: 20.06.11
Востаннє: 21.08.17
Повідомлень: 51

2017-04-08 11:45  
Я маю на увазі HD-звук в Медиаінфо Долбі,в опису роздачі ДТС.хоча бітрейт аудіо залишили як в Долбі.це ж я качаю щоб виділити собі оригінал,і хочу дізнатись
igor911 
Відео Гуртом
Відео Гуртом


З нами з: 18.01.08
Востаннє: 21.08.17
Повідомлень: 7307

2017-04-08 11:46  
geroyasfalta написано:
не зрозуміло

див. до повного розуміння аудіо №2 та аудіо №3.

geroyasfalta 
Свій


З нами з: 20.06.11
Востаннє: 21.08.17
Повідомлень: 51

2017-04-08 11:52  
та мені не цікаво аудіо №3. от Аудіо # 2:
мова: англійська
переклад: оригінал
кодек: -HD 7.1
бітрейт: 4426 кб/с
а в Медіаінфо такі дані-Audio #2
ID : 3
Format : TrueHD
Codec ID : A_TRUEHD
Duration : 1h 43mn
Bit rate mode : Variable
Bit rate : 4 426 Kbps
Maximum bit rate : 5 751 Kbps
Channel(s) : 8 channels
Channel positions : Front: L C R, Side: L R, Back: L R, LFE
Sampling rate : 48.0 KHz
Frame rate : 1 200.000 fps (40 spf)
Compression mode : Lossless
Stream size : 3.21 GiB (15%)
Language : English
Default : No
Просто хочу дізнатись,яка тут доріжка ДОлбі чи ДТС під номером 2

Додано через 1 хвилину 43 секунди:

TrueHD це Долбі якщо Ви не знаєте раптом)
Мені цей мульт дуже подобається,але не подобається бітрейт дубляжу 384кбіт.тож хочу спробувати виділити голоси і накласти їх на оригінал.

igor911 
Відео Гуртом
Відео Гуртом


З нами з: 18.01.08
Востаннє: 21.08.17
Повідомлень: 7307

2017-04-08 11:54  
Info написано:
Format : TrueHD
Codec ID : A_TRUEHD
це ні про що не натякає?

Додано через 59 секунд:

https://en.wikipedia.org/wiki/Dolby_TrueHD

geroyasfalta 
Свій


З нами з: 20.06.11
Востаннє: 21.08.17
Повідомлень: 51

2017-04-08 12:01  
Я розуміюсь що таке Долбі трушд. в опису роздачі написано що в аудіо № 2 знаходиться HD,а в Медіаінфо в аудіо №2 Dolby TrueHD.Хіба ви не бачите?
Ваш часовий пояс: GMT + 2 Години

Нова тема   Відповісти