Лабіринт сновидінь /Manie-manie迷宮物語(Meikyuu Monogatari) / Neo Tokyo (1987) 720p Ukr/Jap | Sub Ukr

Нові коментарі

Нова тема   Відповісти
Автор Повідомлення
Patlati Продакшнз 
Частий відвідувач


З нами з: 09.01.12
Востаннє: 16.03.17
Повідомлень: 35

2017-02-22 15:41  
Лабіринт сновидінь /Manie-manie迷宮物語(Meikyuu Monogatari) / Neo Tokyo (1987) 720p Ukr/Jap | Sub Ukr

Лабіринт сновидінь /Manie-manie迷宮物語(Meikyuu Monogatari) / Neo Tokyo (1987) 720p Ukr/Jap | Sub Ukr


Жанр:наукова фантастика, жахи, пригоди
Країна: Японія



6.88 (637 голосів)

Кінокомпанія: Project Team Argos, Madhouse, Kadokawa Shoten Publishing Co
Режисер: Йошіакі Каваджірі, Рінтаро, Кацухіро Отомо
Ролі озвучують: Хідеко Йошіда, Масане Цукаяма, Ю Мідзушіма, Іемаса Каюмі, Хіроші Отаке
Патлата подяка головному меценату релізу - Sensitivity.

Сюжет:
Стрічка складається з трьох коротких історій від трьох режисерів: про пригоди дівчинки і кота у дивному фантасмагоричному світі; про драматичні перегони знаменитого гонщика майбутнього; про молодого клерка, якому довелося їхати у богом забуту країну, щоб зупинити роботизоване мегабудівництво. Але усі ці історії об'єднує бачення майбутнього, в якому людство втілило форми сучасних (і одвічних) своїх проблем у нові високотехнологічні, й подекуди містичні форми, а дівчинка з першої історії є їх безстороннім спостерігачем.


Тривалість: 49:49
Якість:
Відео:
кодек:
розмір кадру: 1280 х 688
бітрейт: 4871 кб/с

Аудіо # 1:
мова: українська
переклад: багатоголосий закадровий
кодек: 2.0
бітрейт: 160 кб/с

Аудіо # 2:
мова: японська
переклад: оригінал
кодек: 2.0
бітрейт: 160 кб/с

Субтитри:
мова: українська
тип: програмні (м'які)
формат: *.srt

Джерело озвучення:


Ролі озвучили: Oni, Ito, Elvira, Sancho
Переклад: Oni
Субтитри: Sensitivity
Info
D:\VIDEO\Relizu_shablon\Нео-Токіо\ManieManie_ukr.
General
Unique ID : 238715081922827217166899654708300350119 (0xB396DA39D94A66A68D7B4857F83802A7)
Complete name : D:\VIDEO\Relizu_shablon\Нео-Токіо\ManieManie_ukr.
Format :
Format version : Version 4 / Version 2
File size : 1.84 GiB
Duration : 49mn 49s
Overall bit rate : 5 297 Kbps
Encoded date : UTC 2017-02-13 11:36:28
Writing application : mkvmerge v9.6.0 ('Slave To Your Mind') 64bit
Writing library : libebml v1.3.4 + libmatroska v1.4.5
DURATION : 00:49:49.952000000
NUMBER_OF_FRAMES : 93436
NUMBER_OF_BYTES : 59799040
_STATISTICS_WRITING_APP : mkvmerge v9.6.0 ('Slave To Your Mind') 64bit
_STATISTICS_WRITING_DATE_UTC : 2017-02-13 11:36:28
_STATISTICS_TAGS : BPS DURATION NUMBER_OF_FRAMES NUMBER_OF_BYTES
Video #1
ID : 1
Format : AVC
Format/Info : Advanced Video Codec
Format profile : [email protected]
Format settings, CABAC : Yes
Format settings, ReFrames : 3 frames
Codec ID : V_MPEG4/ISO/AVC
Duration : 49mn 49s
Bit rate : 4 871 Kbps
Width : 1 280 pixels
Height : 688 pixels
Display aspect ratio : 1.85:1
Frame rate mode : Constant
Frame rate : 23.976 fps
Color space : YUV
Chroma subsampling : 4:2:0
Bit depth : 8 bits
Scan type : Progressive
Bits/(Pixel*Frame) : 0.231
Stream size : 1.70 GiB (92%)
Title : Neo Tokyo
Writing library : core 50 svn-569
Encoding settings : cabac=1 / ref=3 / deblock=1:0:0 / analyse=0x3:0x113 / me=umh / subme=5 / brdo=0 / mixed_ref=0 / me_range=16 / chroma_me=1 / trellis=1 / 8x8dct=1 / cqm=0 / chroma_qp_offset=0 / slices=2 / nr=0 / decimate=1 / bframes=0 / keyint=250 / keyint_min=25 / scenecut=40 / rc=cqp / qp=20 / ip_ratio=1.40
Default : Yes
Forced : No
Audio #2
ID : 2
Format : AC-3
Format/Info : Audio Coding 3
Mode extension : CM (complete main)
Format settings, Endianness : Big
Codec ID : A_AC3
Duration : 49mn 49s
Bit rate mode : Constant
Bit rate : 160 Kbps
Channel(s) : 2 channels
Channel positions : Front: L R
Sampling rate : 48.0 KHz
Bit depth : 16 bits
Compression mode : Lossy
Stream size : 57.0 MiB (3%)
Language : Ukrainian
Default : Yes
Forced : Yes
Audio #3
ID : 3
Format : AC-3
Format/Info : Audio Coding 3
Mode extension : CM (complete main)
Format settings, Endianness : Big
Codec ID : A_AC3
Duration : 49mn 49s
Bit rate mode : Constant
Bit rate : 160 Kbps
Channel(s) : 2 channels
Channel positions : Front: L R
Sampling rate : 48.0 KHz
Bit depth : 16 bits
Compression mode : Lossy
Stream size : 57.0 MiB (3%)
Language : Japanese
Default : No
Forced : No
Text #4
ID : 4
Format : UTF-8
Codec ID : S_TEXT/UTF8
Codec ID/Info : UTF-8 Plain Text
Language : Ukrainian
Default : No
Forced : No
Скріншоти









Особиста оцінка: 9 - давно не бачив настільки якісне кіно


Авторський реліз (завантажувати можна без реєстрації)
 Трекер:    Зареєстрований   

Завантажити / скачати аніме українською



відео для новачків



 Зареєстрований:   2017-02-22 15:41
 Розмір:   1.84 GB 
 Оцінка аніме:   6.7/10 (Голосів: 3)
   
11FrYkT 
Модератор відео


З нами з: 20.02.11
Востаннє: 17.08.17
Повідомлень: 3805

2017-02-23 13:53  
Patlati Продакшнз написано:

Режисер: Yoshiaki Kawajiri, Rintaro, Katsuhiro Ôtomo
Ролі озвучують: Hideko Yoshida, Masane Tsukayama, Yû Mizushima, Iemasa Kayumi, Hiroshi Ôtake


Напишіть українською

Linatan 
Частий відвідувач


З нами з: 01.11.15
Востаннє: 17.08.17
Повідомлень: 32

2017-03-17 08:18  
Зовсім нікуди не годится. Раджу не витрачати час.
Ваш часовий пояс: GMT + 2 Години

Нова тема   Відповісти