Труп нареченої / Corpse Bride (2005) 1080p Ukr/Eng | Sub Eng

Нові коментарі

Нова тема   Відповісти
Автор Повідомлення
staf777 
Відео Гуртом - підтримка та поширення
Відео Гуртом - підтримка та поширення


З нами з: 16.11.16
Востаннє: 16.08.17
Повідомлень: 522

2017-02-21 21:01  

Труп нареченої / Corpse Bride (2005) 1080p Ukr/Eng | Sub Eng



«Помилка виявилася смертельною»
Оригінальна обкладинка


Жанр: анімація, музичний, фентезі, драма, мелодрама, сімейний
Країна: США



Кіностудія / кінокомпанія: Warner Brothers Tim Burton Animation Co., Laika Entertainment, Will Vinton Studios
Режисер: Тім Бартон, Майк Джонсон
Актори: Джонні Депп, Гелена Бонем Картер, Емілі Вотсон, Альберт Фінні, Джоанна Ламлі, Крістофер Лі
Касові збори

У США стрічка отримала $53,359,111, за кордоном - $63,835,950 (усього - $117,195,061)
Сюжет:
Дія відбувається у європейській провінції часів вікторіанської епохи. У похмурому місті родини Ван Дортів та Еверґлотів готують весілля своїх нащадків — Віктора та Вікторії. Задум взаємовигідний: збіднілі аристократи Еверґлоти врятуються від ганебної вбогості, а торговці рибою Ван Дорти увійдуть до вищого суспільства. Самі наречені, не схожі на своїх батьків, окасті й затуркані Віктор та Вікторія, в тій ситуації нікого не цікавлять. Вони знайомляться на репетиції весілля й, на щастя, подобаються одне одному. Але репетиція не вдається — Віктор плутає слова, підпалює майбутню тещу і, щоб не отримати на горіхи від зловісного пастора, втікає в лісок. ...



Тривалість: 01:17:11
Якість: 1080p
Відео:
кодек:
розмір кадру: 1920x1080
бітрейт: 12800 кб/с

Аудіо # 1:
мова:українська
переклад: багатоголосий закадровий
кодек: 2.0
бітрейт: 256 кб/с

Аудіо # 2:
мова: англійська
переклад: оригінал
кодек: 5.1
бітрейт: 640 кб/с

Джерело озвучення:
озвучено «Так Треба Продакшн» на замовлення телекомпанії

Субтитри # 1-2:
мова: англійська
тип: програмні (м'які)
формат: *.srt
MI

General
Unique ID : 226269151094258470030242724736823611543 (0xAA39DA75B1624B1F93D9CFD83E0A5097)
Complete name : P:\HD українською » Мультфільми в HD\Corpse Bride (2005) [Ukr,Eng sub.Eng] 1080p [Hurtom].
Format :
Format version : Version 4 / Version 2
File size : 7.39 GiB
Duration : 1 h 17 min
Overall bit rate : 13.7 Mb/s
Movie name : Corpse Bride (2005) [Ukr,Eng sub.Eng] 1080p [Hurtom]
Encoded date : UTC 2017-02-23 07:15:13
Writing application : mkvmerge v9.8.0 ('Kuglblids') 64bit
Writing library : libebml v1.3.4 + libmatroska v1.4.5
Cover : Yes
Attachments : cover.jpg / xlog.txt

Video
ID : 1
Format : AVC
Format/Info : Advanced Video Codec
Format profile : [email protected]
Format settings, CABAC : Yes
Format settings, ReFrames : 4 frames
Codec ID : V_MPEG4/ISO/AVC
Duration : 1 h 17 min
Bit rate : 12.8 Mb/s
Width : 1 920 pixels
Height : 1 080 pixels
Display aspect ratio : 16:9
Frame rate mode : Constant
Frame rate : 23.976 (24000/1001) FPS
Color space : YUV
Chroma subsampling : 4:2:0
Bit depth : 8 bits
Scan type : Progressive
Bits/(Pixel*Frame) : 0.257
Stream size : 6.90 GiB (93%)
Title : Release for HDCLUB
Writing library : core 129 r2230kMod 1cffe9f
Encoding settings : cabac=1 / ref=4 / deblock=1:-1:-1 / analyse=0x3:0x113 / me=tesa / subme=11 / psy=1 / fade_compensate=0.00 / psy_rd=1.00:0.00 / mixed_ref=1 / me_range=23 / chroma_me=1 / trellis=2 / 8x8dct=1 / cqm=0 / deadzone=21,11 / fast_pskip=0 / chroma_qp_offset=-2 / threads=12 / lookahead_threads=2 / sliced_threads=0 / nr=0 / decimate=0 / interlaced=0 / bluray_compat=0 / constrained_intra=0 / bframes=16 / b_pyramid=2 / b_adapt=2 / b_bias=0 / direct=3 / weightb=1 / open_gop=0 / weightp=2 / keyint=250 / keyint_min=23 / scenecut=40 / intra_refresh=0 / rc_lookahead=40 / rc=2pass / mbtree=0 / bitrate=12800 / ratetol=1.0 / qcomp=0.80 / qpmin=0 / qpmax=69 / qpstep=4 / cplxblur=20.0 / qblur=0.5 / vbv_maxrate=50000 / vbv_bufsize=62500 / nal_hrd=none / ip_ratio=1.10 / pb_ratio=1.10 / aq=1:0.60
Language : English
Default : Yes
Forced : No
Color range : Limited
Matrix coefficients : BT.709

Audio #1
ID : 2
Format : AC-3
Format/Info : Audio Coding 3
Mode extension : CM (complete main)
Format settings, Endianness : Big
Codec ID : A_AC3
Duration : 1 h 17 min
Bit rate mode : Constant
Bit rate : 256 kb/s
Channel(s) : 2 channels
Channel positions : Front: L R
Sampling rate : 48.0 kHz
Frame rate : 31.250 FPS (1536 spf)
Bit depth : 16 bits
Compression mode : Lossy
Stream size : 141 MiB (2%)
Title : 2.0 @ 256 kbps
Language : Ukrainian
Default : Yes
Forced : Yes

Audio #2
ID : 3
Format : AC-3
Format/Info : Audio Coding 3
Mode extension : CM (complete main)
Format settings, Endianness : Big
Codec ID : A_AC3
Duration : 1 h 17 min
Bit rate mode : Constant
Bit rate : 640 kb/s
Channel(s) : 6 channels
Channel positions : Front: L C R, Side: L R, LFE
Sampling rate : 48.0 kHz
Frame rate : 31.250 FPS (1536 spf)
Bit depth : 16 bits
Compression mode : Lossy
Stream size : 353 MiB (5%)
Title : EX 5.1 @ 640 kbps
Language : English
Default : No
Forced : No

Text #1
ID : 4
Format : UTF-8
Codec ID : S_TEXT/UTF8
Codec ID/Info : UTF-8 Plain Text
Duration : 1 h 15 min
Bit rate : 53 b/s
Count of elements : 842
Stream size : 29.7 KiB (0%)
Language : English
Default : No
Forced : No

Text #2
ID : 5
Format : UTF-8
Codec ID : S_TEXT/UTF8
Codec ID/Info : UTF-8 Plain Text
Duration : 1 h 15 min
Bit rate : 59 b/s
Count of elements : 1048
Stream size : 32.7 KiB (0%)
Language : English
Default : No
Forced : No

Menu
00:00:00.000 : en:Credits
00:02:21.307 : en:According to Plan
00:06:29.389 : en:What Impropriety!
00:10:46.145 : en:Underrehearsed
00:14:31.203 : en:Corpse Bride
00:18:53.966 : en:Wedding Feast
00:20:32.731 : en:Remains of the Day
00:23:58.770 : en:Fugitive Groom
00:27:20.805 : en:Scraps
00:30:27.659 : en:Ukrainian Haunting Spell
00:33:22.166 : en:Bad Feelings
00:36:17.508 : en:The Other Woman'
00:39:53.390 : en:Tears to Shed
00:43:21.098 : en:No Help for Victoria
00:46:19.943 : en:A Wedding After All
00:48:54.598 : en:Duet for Roving Hand
00:52:02.953 : en:Picking Up the Pieces
00:54:50.453 : en:Corpse Groom Required
00:56:57.080 : en:The Wedding Song
01:00:15.445 : en:Reunions
01:03:45.488 : en:His Two Brides
01:07:41.057 : en:Duel to the Death
01:11:12.101 : en:Set Free
01:13:26.402 : en:End Credits
Скріншоти




Джерело: &
Особиста оцінка: 8 - мені сподобалося
Труп нареченої / Corpse Bride (2005) 1080p Ukr/Eng | Sub Eng


 Трекер:    Зареєстрований   

Завантажити / скачати мультфільм українською



відео для новачків



 Зареєстрований:   2017-02-23 10:45
 Розмір:   7.39 GB 
 Оцінка мультфільму:   9.9/10 (Голосів: 10)
   
Інші релізи
Ваш часовий пояс: GMT + 2 Години

Нова тема   Відповісти