Відьмина гора / Race to Witch Mountain (2009) Remux 1080p Ukr/Eng | Sub Ukr/Eng

Нові коментарі

Нова тема   Відповісти
Автор Повідомлення
staf777 
Відео Гуртом - підтримка та поширення
Відео Гуртом - підтримка та поширення


З нами з: 16.11.16
Востаннє: 24.05.19
Повідомлень: 2382

2017-02-21 18:37  
Відьмина гора / Race to Witch Mountain (2009) Remux 1080p Ukr/Eng | Sub Ukr/Eng

Відьмина гора / Race to Witch Mountain (2009) Remux 1080p Ukr/Eng | Sub Ukr/Eng
Оригінальна обкладинка

Відьмина гора / Race to Witch Mountain (2009) Remux 1080p Ukr/Eng | Sub Ukr/Eng
Жанр: сімейний, пригодницький, екшн, фантастика, трилер
Країна: США



Кінокомпанія: Walt Disney Pictures, Gunn Films
Режисер: Енді Фікмен
Актори: Двейн Джонсон, АннаCофія Робб, Александр Людвіг, Карла Гуджино, Кіаран Гіндс, Том Еверетт Скотт, Кріс Маркетт, Біллі Браун, Геррі Маршалл, Кім Річардс

Сюжет:
По всьому світі люди щодня сідають у таксі, щоб дістатися з одного місця в інше - це звичне явище повсякденного життя. Але в новому фантастичному трилері від студії Walt Disney «Відьмина гора» (Race to Witch Mountain) це повсякденне явище перетворюється на справді космічну ситуацію, яка залучає таксиста та його двох незвичайних пасажирів у неймовірні пригоди. Прем’єра картини в Україні - 23 квітня.

У житті Джека Бруно, таксиста-невдахи з Лас-Вегаса, все пішло шкереберть тієї ж миті, коли до нього у таксі, тікаючи від погоні, потрапили Тоні та Тіа. Тепер не тільки дітям, а й йому потрібна допомога, тому що його пасажири – незвичайні дітлахи, які володіють паранормальними здібностями. До того ж, світу загрожує неминуча загибель, і водій змушений розшукати спеціаліста з НЛО та врятувати дітей від переслідування, щоб вони врятували світ!


Тривалість: 01:38:17
Якість: Remux 1080p
Відео:
кодек:
розмір кадру: 1920x1080
бітрейт: 27.9 Mб/с

Аудіо # 1:
мова: українська
переклад: професійний дубльований
кодек: 5.1
бітрейт: 640 кб/с

Аудіо # 2:
мова: англійська
переклад: оригінал
кодек: -HD MA 5.1
бітрейт: 3840 кб/с

Субтитри #1-2:
мова: українська
тип: пререндерні
формат: *.pgs

Субтитри #3-4:
мова: англійська
тип: пререндерні
формат: *.pgs
Info
General
Unique ID : 179380202162636535127384380585018803733 (0x86F35ECA8207A0F7BD27BE849B964615)
Complete name : P:\HD українською » Фільми в HD\Фантастика\Race to Witch Mountain (2009) [Ukr,Eng sub.Ukr,Eng] Remux 1080p [Hurtom].
Format :
Format version : Version 4 / Version 2
File size : 22.3 GiB
Duration : 1 h 38 min
Overall bit rate mode : Variable
Overall bit rate : 32.5 Mb/s
Movie name : Race to Witch Mountain (2009) [Ukr,Eng sub.Ukr,Eng] Remux 1080p [Hurtom]
Encoded date : UTC 2017-02-21 14:32:55
Writing application : v9.8.0 ('Kuglblids') 64bit
Writing library : libebml v1.3.4 + v1.4.5

Video
ID : 1
Format : AVC
Format/Info : Advanced Video Codec
Format profile : [email protected]
Format settings, CABAC : Yes
Format settings, ReFrames : 4 frames
Codec ID : V_MPEG4/ISO/AVC
Duration : 1 h 38 min
Bit rate mode : Variable
Bit rate : 27.9 Mb/s
Maximum bit rate : 37.0 Mb/s
Width : 1 920 pixels
Height : 1 080 pixels
Display aspect ratio : 16:9
Frame rate mode : Constant
Frame rate : 23.976 (24000/1001) FPS
Color space : YUV
Chroma subsampling : 4:2:0
Bit depth : 8 bits
Scan type : Progressive
Bits/(Pixel*Frame) : 0.562
Stream size : 19.2 GiB (86%)
Default : Yes
Forced : No
Color range : Limited
Color primaries : BT.709
Transfer characteristics : BT.709
Matrix coefficients : BT.709

Audio #1
ID : 2
Format : AC-3
Format/Info : Audio Coding 3
Mode extension : CM (complete main)
Format settings, Endianness : Big
Codec ID : A_AC3
Duration : 1 h 38 min
Bit rate mode : Constant
Bit rate : 640 kb/s
Channel(s) : 6 channels
Channel positions : Front: L C R, Side: L R, LFE
Sampling rate : 48.0 kHz
Frame rate : 31.250 FPS (1536 spf)
Bit depth : 16 bits
Compression mode : Lossy
Stream size : 450 MiB (2%)
Language : Ukrainian
Default : Yes
Forced : Yes

Audio #2
ID : 3
Format :
Format/Info : Digital Theater Systems
Format profile : MA / Core
Mode : 16
Format settings, Endianness : Big
Codec ID : A_DTS
Duration : 1 h 38 min
Bit rate mode : Variable / Constant
Bit rate : 3 840 kb/s / 1 509 kb/s
Channel(s) : 6 channels
Channel positions : Front: L C R, Side: L R, LFE
Sampling rate : 48.0 kHz
Frame rate : 93.750 FPS (512 spf)
Bit depth : 24 bits
Compression mode : Lossless / Lossy
Stream size : 2.68 GiB (12%)
Language : English
Default : No
Forced : No

Text #1
ID : 4
Format : PGS
Muxing mode : zlib
Codec ID : S_HDMV/PGS
Codec ID/Info : Picture based subtitle format used on BDs/HD-DVDs
Duration : 1 h 34 min
Bit rate : 9 123 b/s
Count of elements : 2110
Stream size : 6.19 MiB (0%)
Language : Ukrainian
Default : No
Forced : No

Text #2
ID : 5
Format : PGS
Muxing mode : zlib
Codec ID : S_HDMV/PGS
Codec ID/Info : Picture based subtitle format used on BDs/HD-DVDs
Duration : 1 h 34 min
Bit rate : 267 b/s
Count of elements : 60
Stream size : 185 KiB (0%)
Language : Ukrainian
Default : No
Forced : No

Text #3
ID : 6
Format : PGS
Muxing mode : zlib
Codec ID : S_HDMV/PGS
Codec ID/Info : Picture based subtitle format used on BDs/HD-DVDs
Duration : 1 h 34 min
Bit rate : 9 485 b/s
Count of elements : 2054
Stream size : 6.42 MiB (0%)
Language : English
Default : No
Forced : No

Text #4
ID : 7
Format : PGS
Muxing mode : zlib
Codec ID : S_HDMV/PGS
Codec ID/Info : Picture based subtitle format used on BDs/HD-DVDs
Duration : 1 h 34 min
Bit rate : 10.6 kb/s
Count of elements : 2278
Stream size : 7.15 MiB (0%)
Language : English
Default : No
Forced : No
Скріншоти



Джерело: &
Особиста оцінка: 0 - не дивився


Золотий реліз (завантажене не впливає на рейтинг)
 Трекер:    Зареєстрований   

Завантажити / скачати фільм українською



відео для новачків



 Зареєстрований:   2017-02-21 18:37
 Розмір:   22.33 GB 
 Оцінка фільму:   7.4/10 (Голосів: 7)
   
Ваш часовий пояс: GMT + 2 Години

Нова тема   Відповісти