Справжній злочин / True Crime (1999) 720p Ukr/Eng | Sub Eng

Нові коментарі

Нова тема   Відповісти
Автор Повідомлення
Anonymous 







2017-02-21 16:50  
Справжній злочин / True Crime (1999) 720p Ukr/Eng | Sub Eng

Справжній злочин / True Crime (1999) 720p Ukr/Eng | Sub Eng
Оригінальний постер


повнорозмірне зображення відкриється по кліку (з натиснутим CTRL чи кліком середньою кнопкою мишки - у новій вкладці)

Жанр: детектив, трилер, драма, кримінальний
Країна: США



Кінокомпанія: Warner Bros. Pictures
Режисер: Клінт Іствуд / Clint Eastwood
Актори: Клінт Іствуд / Clint Eastwood, Ісайа Вашингтон / Isaiah Washington, Джеймс Вудс / James Woods, Ліза Гей Гамільтон / Lisa Gay Hamilton, Деніс Лірі / Denis Leary, Бернард Гілл / Bernard Hill, Франческа Фішер-Іствуд / Francesca Fisher-Eastwood (дочка Клінта Іствуда) та інші

Сюжет:
Тертий життям репортер Стів Еверетт на перший погляд не викликає симпатій. Він - п'яниця, бабій, лихословить, не дуже турботливий батько. Однак, коли Стів розуміє, що молодий хлопець, якого повинні стратити через 12 годин, не винен, він не роздумуючи йде на ризик, щоб запобігти справжньому злочину.

Рейтинг MPAA: R - особам до 17 років обов'язкова присутність батьків або дорослого опікуна
Вікова категорія: 16+
Тривалість: 2:07:39
Якість: 720p
Відео:
кодек:
розмір кадру: 1280x720
бітрейт: 9381 кб/с [crf=17]

Аудіо # 1:
мова: українська
переклад: багатоголосий закадровий
ролі озвучили: Клінт Іствуд - Владислав Пупков, Джеймс Вудс - Олег Лепенець, Деніс Лірі - Олесь Гімбаржевський
кодек: 2.0
бітрейт: 192 кб/с

Аудіо # 2:
мова: англійська
переклад: оригінал
кодек: 5.1
бітрейт: 640 кб/с

Субтитри # 1-2:
мова: англійська (повні, SDH)
тип: програмні (м'які)
формат: *.srt

Збережено оригінальні розділи, як на Blu-ray
Info
Код:
Format                      :
Format version              : Version 4 / Version 2
File size                   : 9.09 GiB
Duration                    : 2 h 7 min
Overall bit rate            : 10.2 Mb/s

Video
ID                          : 1
Format                      : AVC
Format/Info                 : Advanced Video Codec
Format profile              : [email protected]
Format settings, CABAC      : Yes
Format settings, ReFrames   : 9 frames
Codec ID                    : V_MPEG4/ISO/AVC
Duration                    : 2 h 7 min
Bit rate                    : 9 381 kb/s
Width                       : 1 280 pixels
Height                      : 720 pixels
Display aspect ratio        : 16:9
Frame rate mode             : Constant
Frame rate                  : 23.976 (24000/1001) FPS
Color space                 : YUV
Chroma subsampling          : 4:2:0
Bit depth                   : 8 bits
Scan type                   : Progressive
Bits/(Pixel*Frame)          : 0.425
Stream size                 : 8.35 GiB (92%)
Title                       : Справжній злочин / True Crime (1999) 720p [VietHD]
Writing library             : core 148 r2665kMod a01e339
Encoding settings           : cabac=1 / ref=9 / deblock=1:-3:-3 / analyse=0x3:0x133 / me=umh / subme=10 / psy=1 / fade_compensate=0.00 / psy_rd=1.00:0.00 / mixed_ref=1 / me_range=24 / chroma_me=1 / trellis=2 / 8x8dct=1 / cqm=0 / deadzone=21,11 / fast_pskip=0 / chroma_qp_offset=-2 / threads=12 / lookahead_threads=3 / sliced_threads=0 / nr=0 / decimate=0 / interlaced=0 / bluray_compat=0 / constrained_intra=0 / fgo=0 / bframes=11 / b_pyramid=2 / b_adapt=2 / b_bias=0 / direct=3 / weightb=1 / open_gop=0 / weightp=2 / keyint=250 / keyint_min=23 / scenecut=40 / intra_refresh=0 / rc_lookahead=60 / rc=crf / mbtree=0 / crf=17.0000 / qcomp=0.60 / qpmin=0 / qpmax=69 / qpstep=4 / vbv_maxrate=62500 / vbv_bufsize=78125 / crf_max=0.0 / nal_hrd=none / filler=0 / ip_ratio=1.30 / pb_ratio=1.20 / aq=3:0.70
Language                    : English
Default                     : Yes
Forced                      : No
Color range                 : Limited
Matrix coefficients         : BT.709

Audio #1
ID                          : 2
Format                      : AC-3
Format/Info                 : Audio Coding 3
Mode extension              : CM (complete main)
Format settings, Endianness : Big
Codec ID                    : A_AC3
Duration                    : 2 h 7 min
Bit rate mode               : Constant
Bit rate                    : 192 kb/s
Channel(s)                  : 2 channels
Channel positions           : Front: L R
Sampling rate               : 48.0 kHz
Frame rate                  : 31.250 FPS (1536 spf)
Bit depth                   : 16 bits
Compression mode            : Lossy
Stream size                 : 175 MiB (2%)
Title                       : MVO, 2.0 192 Kbps [Hurtom-dbdeveloper]
Language                    : Ukrainian
Default                     : Yes
Forced                      : Yes

Audio #2
ID                          : 3
Format                      : AC-3
Format/Info                 : Audio Coding 3
Mode extension              : CM (complete main)
Format settings, Endianness : Big
Codec ID                    : A_AC3
Duration                    : 2 h 7 min
Bit rate mode               : Constant
Bit rate                    : 640 kb/s
Channel(s)                  : 6 channels
Channel positions           : Front: L C R, Side: L R, LFE
Sampling rate               : 48.0 kHz
Frame rate                  : 31.250 FPS (1536 spf)
Bit depth                   : 16 bits
Compression mode            : Lossy
Stream size                 : 583 MiB (6%)
Title                       : Original, 5.1 640 Kbps
Language                    : English
Default                     : No
Forced                      : No

Text #1
ID                          : 4
Format                      : UTF-8
Codec ID                    : S_TEXT/UTF8
Codec ID/Info               : UTF-8 Plain Text
Duration                    : 2 h 6 min
Bit rate                    : 74 b/s
Count of elements           : 1825
Stream size                 : 69.0 KiB (0%)
Title                       : Eng full
Language                    : English
Default                     : No
Forced                      : No

Text #2
ID                          : 5
Format                      : UTF-8
Codec ID                    : S_TEXT/UTF8
Codec ID/Info               : UTF-8 Plain Text
Duration                    : 2 h 6 min
Bit rate                    : 77 b/s
Count of elements           : 1913
Stream size                 : 71.8 KiB (0%)
Title                       : Eng SDH
Language                    : English
Default                     : No
Forced                      : No

Menu
00:00:00.000                : en:00:00:00.000
00:01:28.255                : en:00:01:28.255
00:04:08.457                : en:00:04:08.457
00:05:31.873                : en:00:05:31.873
00:09:59.140                : en:00:09:59.140
00:13:11.165                : en:00:13:11.165
00:17:02.730                : en:00:17:02.730
00:18:19.807                : en:00:18:19.807
00:23:57.811                : en:00:23:57.811
00:29:23.637                : en:00:29:23.637
00:32:47.048                : en:00:32:47.048
00:35:07.314                : en:00:35:07.314
00:38:54.874                : en:00:38:54.874
00:41:43.710                : en:00:41:43.710
00:48:16.102                : en:00:48:16.102
00:52:35.027                : en:00:52:35.027
00:53:58.277                : en:00:53:58.277
00:57:04.171                : en:00:57:04.171
01:00:12.818                : en:01:00:12.818
01:02:20.946                : en:01:02:20.946
01:05:26.798                : en:01:05:26.798
01:10:33.604                : en:01:10:33.604
01:15:29.608                : en:01:15:29.608
01:17:08.374                : en:01:17:08.374
01:19:51.996                : en:01:19:51.996
01:22:23.313                : en:01:22:23.313
01:25:53.899                : en:01:25:53.899
01:29:47.424                : en:01:29:47.424
01:32:08.898                : en:01:32:08.898
01:36:17.647                : en:01:36:17.647
01:43:28.911                : en:01:43:28.911
01:44:39.982                : en:01:44:39.982
01:47:56.345                : en:01:47:56.345
01:50:07.643                : en:01:50:07.643
01:52:47.678                : en:01:52:47.678
01:54:57.599                : en:01:54:57.599
01:58:40.989                : en:01:58:40.989
02:00:16.960                : en:02:00:16.960
02:02:05.401                : en:02:02:05.401


Джерело: &
Подяка за укр.звук п.dbdeveloper'у, за укр.постер - п.Shkval


Срібний реліз (на рейтинг впливає 50% завантаженого)
 Трекер:    Зареєстрований   

Завантажити / скачати фільм українською



відео для новачків



 Зареєстрований:   2017-02-21 18:32
 Розмір:   9.09 GB 
 Оцінка фільму:   3.4/10 (Голосів: 14)
   
Інші релізи
   Справжній злочин / True Crime (1999) AVC Patriot_ukr  2 / 0   1.29 GB   2017-03-02 17:41 
   Справжній злочин / True Crime (1999) Ukr/Eng Arsenfpu  5 / 0   2.18 GB   2017-01-27 08:07 
   Справжній злочин / True Crime (1999) 1080p Ukr/Eng | Sub Eng staf777  1 / 0   19.01 GB   2016-12-21 17:14 
Ваш часовий пояс: GMT + 2 Години

Нова тема   Відповісти