Вулкан / Volcano (1997) 720p Ukr/Eng | Sub Eng

Нові коментарі

Нова тема   Відповісти
Останній раз роздавалося staf777 (2017-11-06)
Автор Повідомлення
staf777 
Відео Гуртом - підтримка та поширення
Відео Гуртом - підтримка та поширення


З нами з: 16.11.16
Востаннє: 06.11.17
Повідомлень: 522

2017-02-20 16:36  
Вулкан / Volcano (1997) 720p Ukr/Eng | Sub Eng

Вулкан / Volcano (1997) 720p Ukr/Eng | Sub Eng


Жанр: екшн, драма, фантастика, трилер
Країна: США



Кінокомпанія: Twentieth Century Fox Film Corporation, Donner/Shuler-Donner Productions, Moritz Original
Режисер: Мік Джексон / Mick Jackson
Актори: Томмі Лі Джонс /Tommy Lee Jones/, Енн Хеш /Anne Heche/, Гебі Хоффманн /Gaby Hoffmann/, Дон Чідл /Don Cheadle/, Жаклін Кім /Jacqueline Kim/, Кіт Девід /Keith David/, Джон Корбетт /John Corbett/, Майкл Рісполі /Michael Rispoli/, Джон Керролл Лінч /John Carroll Lynch

Сюжет:
Лос-Анджелес за час свого існування бачив достатньо стихійних лих: землетрусів, пожеж, повеней. Але тепер «місту янголів» доведеться зіткнутися з найстрашнішою з усіх пережитих катастроф, яка може стерти його з лиця землі. В одному з найщільніше населених районів Лос-Анджелеса раптом активізувався вулкан. Розпечена смертоносна лава вже почала виливатися на вулиці, заповнені автомобілями…


Тривалість: 01:43:51
Якість: 720p
Відео:
кодек:
розмір кадру: 1280x720
бітрейт: 7990 кб/с

Аудіо # 1:
мова: українська
переклад: двоголосий закадровий
кодек: 2.0
бітрейт: 192 кб/с

Аудіо # 2:
мова: англійська
переклад: оригінал
кодек: 5.1
бітрейт: 640 кб/с

Субтитри#1-2:
мова: англійська
тип: програмні (м'які)
формат: *.srt
Info
General
Unique ID : 194991046185526223663057380908241674011 (0x92B1E8D343334AC8A9D9D87733FE5F1B)
Complete name : P:\HD українською » Фільми в HD\Фантастика\Volcano (1997) [Ukr,Eng sub.Eng] 720p [Hurtom].
Format :
Format version : Version 4 / Version 2
File size : 6.40 GiB
Duration : 1 h 43 min
Overall bit rate : 8 825 kb/s
Movie name : Volcano (1997) [Ukr,Eng sub.Eng] 720p [Hurtom]
Encoded date : UTC 2017-02-20 12:05:01
Writing application : mkvmerge v9.8.0 ('Kuglblids') 64bit
Writing library : libebml v1.3.4 + libmatroska v1.4.5
Cover : Yes
Attachments : cover.jpg

Video
ID : 1
Format : AVC
Format/Info : Advanced Video Codec
Format profile : [email protected]
Format settings, CABAC : Yes
Format settings, ReFrames : 9 frames
Codec ID : V_MPEG4/ISO/AVC
Duration : 1 h 43 min
Bit rate : 7 990 kb/s
Width : 1 280 pixels
Height : 720 pixels
Display aspect ratio : 16:9
Frame rate mode : Constant
Frame rate : 23.976 (24000/1001) FPS
Color space : YUV
Chroma subsampling : 4:2:0
Bit depth : 8 bits
Scan type : Progressive
Bits/(Pixel*Frame) : 0.362
Stream size : 5.80 GiB (91%)
Writing library : core 144 r2525kMod 40bb568
Encoding settings : cabac=1 / ref=9 / deblock=1:-3:-3 / analyse=0x3:0x133 / me=esa / subme=10 / psy=1 / fade_compensate=0.00 / psy_rd=1.05:0.05 / mixed_ref=1 / me_range=24 / chroma_me=1 / trellis=2 / 8x8dct=1 / cqm=0 / deadzone=21,11 / fast_pskip=0 / chroma_qp_offset=-3 / threads=6 / lookahead_threads=1 / sliced_threads=0 / nr=0 / decimate=1 / interlaced=0 / bluray_compat=0 / constrained_intra=0 / fgo=0 / bframes=12 / b_pyramid=2 / b_adapt=2 / b_bias=0 / direct=3 / weightb=1 / open_gop=0 / weightp=2 / keyint=250 / keyint_min=23 / scenecut=40 / intra_refresh=0 / rc_lookahead=60 / rc=crf / mbtree=0 / crf=17.0000 / qcomp=0.65 / qpmin=0 / qpmax=69 / qpstep=4 / vbv_maxrate=62500 / vbv_bufsize=78125 / crf_max=0.0 / nal_hrd=none / filler=0 / ip_ratio=1.40 / pb_ratio=1.30 / aq=1:0.70
Language : English
Default : Yes
Forced : No
Color range : Limited
Matrix coefficients : BT.709

Audio #1
ID : 2
Format : AC-3
Format/Info : Audio Coding 3
Mode extension : CM (complete main)
Format settings, Endianness : Big
Codec ID : A_AC3
Duration : 1 h 43 min
Bit rate mode : Constant
Bit rate : 192 kb/s
Channel(s) : 2 channels
Channel positions : Front: L R
Sampling rate : 48.0 kHz
Frame rate : 31.250 FPS (1536 spf)
Bit depth : 16 bits
Compression mode : Lossy
Stream size : 143 MiB (2%)
Title : UA-MVO, 2+2
Language : Ukrainian
Default : Yes
Forced : Yes

Audio #2
ID : 3
Format : AC-3
Format/Info : Audio Coding 3
Mode extension : CM (complete main)
Format settings, Endianness : Big
Codec ID : A_AC3
Duration : 1 h 43 min
Bit rate mode : Constant
Bit rate : 640 kb/s
Channel(s) : 6 channels
Channel positions : Front: L C R, Side: L R, LFE
Sampling rate : 48.0 kHz
Frame rate : 31.250 FPS (1536 spf)
Bit depth : 16 bits
Compression mode : Lossy
Stream size : 475 MiB (7%)
Language : English
Default : No
Forced : No

Text #1
ID : 4
Format : UTF-8
Codec ID : S_TEXT/UTF8
Codec ID/Info : UTF-8 Plain Text
Duration : 1 h 40 min
Bit rate : 86 b/s
Count of elements : 1803
Stream size : 63.8 KiB (0%)
Language : English
Default : No
Forced : No

Text #2
ID : 5
Format : UTF-8
Codec ID : S_TEXT/UTF8
Codec ID/Info : UTF-8 Plain Text
Duration : 1 h 40 min
Bit rate : 89 b/s
Count of elements : 1932
Stream size : 66.3 KiB (0%)
Title : SDH
Language : English
Default : No
Forced : No

Menu
00:00:00.000 : en:00:00:00.000
00:11:41.743 : en:00:11:41.743
00:21:57.356 : en:00:21:57.356
00:30:05.554 : en:00:30:05.554
00:42:56.114 : en:00:42:56.114
00:53:30.748 : en:00:53:30.748
01:02:27.827 : en:01:02:27.827
01:10:18.840 : en:01:10:18.840
01:21:46.819 : en:01:21:46.819
01:33:04.662 : en:01:33:04.662
Скріншоти



Подяки:
- п. Sando7 за запис з ТБ;
- п. voin747 за синхронізацію

Джерело: &
Особиста оцінка: 0 - не дивився


Срібний реліз (на рейтинг впливає 50% завантаженого)
 Трекер:    Зареєстрований   

Завантажити / скачати фільм українською



відео для новачків



 Зареєстрований:   2017-02-20 16:36
 Розмір:   6.4 GB 
 Оцінка фільму:   7.8/10 (Голосів: 5)
   
Інші релізи
   Вулкан / Volcano (1997) patriot2305  4 / 0   1.18 GB   2014-03-24 14:06 
   Вулкан / Volcano (1997) Ukr/Eng | Sub Ukr/Eng _oles  0 / 2   1.72 GB   2010-07-09 15:35 
Electroz 
Відео Гуртом - підтримка та поширення
Відео Гуртом - підтримка та поширення


З нами з: 18.09.14
Востаннє: 17.12.17
Повідомлень: 2029

2017-02-20 17:15  
staf777 написано:
переклад: багатоголосий закадровий

двоголосий

Ваш часовий пояс: GMT + 2 Години

Нова тема   Відповісти