Висота "Жовтневий" (2-е видання, Частини 2-3) / Altitude "October Palace" (2nd ed. Parts 2-3) (2017) 1080p

Нові коментарі

Нова тема   Відповісти
Автор Повідомлення
Anonymous 







2017-02-20 16:57  
Висота "Жовтневий" (2-е видання, Частини 2-3) / Altitude "October Palace" (2nd ed. Parts 2-3) (2017) 1080p

Висота "Жовтневий" (2-е видання, Частини 2-3) / Altitude "October Palace" (2nd ed. Parts 2-3) (2017) 1080p


Жанр: документальний, історичний
Країна: Україна

Телеканал / кіностудія: Лабораторія реконструкції подій "Jus Talionis"
Сюжет:
Посекундна і покадрова відеореконструкція подій на Майдані 20 лютого 2014 року.
Відеореконструкція має три логічні частини. Найголовніша, друга частина - проміжок 08:53-11:00. За цей час на Майдані було вбито 45 із 48 мітингувальників (всі з них були неозброєні) і 2 правоохоронців. Третя частина охоплює час від 10:58 до 17:31, з таймлапсом 4:1 для проміжків 12:33-15:03, 15:05-16:23, 16:27-16:45, 17:00-17:31,
загиблі і постраждалі за цей час:
11:28 - Олександр Храпаченко - убитий;
11:42 - Олеся Жуковська - поранена;
11:43 - Віталій Смоленський - убитий;
16:50 - Володимир Мельничук - убитий.
Перша частина буде додана у цей реліз після виходу.

За підтримки Цензор.НЕТ Лабораторія реконструкції подій "Jus Talionis" провела роботу з оновлення і суттєвого доповнення попередньої роботи "Висота Жовтневий"

Зображення на екрані розділено на 16 полів (4х4), які мають точний час. Також застенографовано висловлювання ведучих сцени. За основу взято час камер Національного банку України. У цій роботі синхронізовано 4 камери відеоспостереження, і величезна кількість відео та фотоматеріалів, - близько 100 авторів. У "Jus Talionis" зазначили, що було визначено похибки часу кожного фотоапарата і відеокамери.

80% відеоматеріалу і повністю фотоматеріал синхронізовано з унікальними відеоознаками, наприклад, спалахами або унікальними рухами. Для цих 80% похибка синхронізації становить не більш ніж 0.1 сек. Інших 20% синхронізовано за звуком, але з урахуванням затримки звуку від аудіоджерела. Похибка для цих 20% становить не більш ніж 0.25 сек.

Завдяки цій роботі можна відстежити будь-кого, кого ідентифіковано хоча б на одному кадрі або фото, а також можна побачити, що відбувалося в усіх куточках Майдану Незалежності і вул. Інститутської в один і той самий момент часу, а головне ці результати дають змогу кожному робити висновки про розвиток подій і тих, хто стріляв.

Автори відео зауважили, що в цій відеореконструкції зареєстровано лише 80 вогнепальних поранених із боку мітингувальників, хоча вважають, що їх було більше, тому що не всі звернулися і не всі отримали статус потерпілих.

Колектив "Jus Talionis" просить усіх потерпілих під час подій на Майдані звернутися до тих, хто веде розслідування (ГПУ, адвокати потерпілих), щоб знайшлися всі свідки поранень і вбивств. Також дуже важливо, щоб свідки подій 20 лютого 2014 року надали слідству кулі, гільзи, прострелені предмети, які вони розібрали собі на сувеніри. Джерело: http://ua.censor.net.ua/v428677
Переглянути онлайн:
друга частина:

третя частина:
Тривалість: 02:07:38 + 03:04:14
Якість: 1080p
Відео:
кодек:
розмір кадру: 1920 х 1080
бітрейт: 4218-4321 Кб/с

Аудіо:
мова: українська
переклад: оригінал
кодек: 2.0
бітрейт: 126 кб/с
Info
[code]General
Complete name : Висота ''Жовтневий'' ч.2 (2-е видання) 08.53-11.00 (20.02.2014).1080p.mp4
Format : MPEG-4
Format profile : Base Media
Codec ID : isom (isom/iso2/avc1/mp41)
File size : 3.97 GiB
Duration : 2 h 7 min
Overall bit rate : 4 455 kb/s
Writing application : Lavf55.22.100

Video
ID : 1
Format : AVC
Format/Info : Advanced Video Codec
Format profile : [email protected]
Format settings, CABAC : Yes
Format settings, ReFrames : 3 frames
Codec ID : avc1
Codec ID/Info : Advanced Video Coding
Duration : 2 h 7 min
Bit rate : 4 321 kb/s
Width : 1 920 pixels
Height : 1 080 pixels
Display aspect ratio : 16:9
Frame rate mode : Constant
Frame rate : 29.970 (30000/1001) FPS
Color space : YUV
Chroma subsampling : 4:2:0
Bit depth : 8 bits
Scan type : Progressive
Bits/(Pixel*Frame) : 0.070
Stream size : 3.85 GiB (97%)
Color range : Limited
Color primaries : BT.709
Transfer characteristics : BT.709
Matrix coefficients : BT.709

Audio
ID : 2
Format :
Format/Info : Advanced Audio Codec
Format profile : LC
Codec ID : 40
Duration : 2 h 7 min
Bit rate mode : Constant
Bit rate : 126 kb/s
Channel(s) : 2 channels
Channel positions : Front: L R
Sampling rate : 44.1 kHz
Frame rate : 43.066 FPS (1024 spf)
Compression mode : Lossy
Stream size : 115 MiB (3%)
Default : Yes
Alternate group : 1


Джерело:
12.03.2017 реліз оновлено - змінено якість з 1440p на 1080p, додано третю частину.


Золотий реліз (завантажене не впливає на рейтинг)
 Трекер:    Зареєстрований   

Завантажити / скачати фільм українською



відео для новачків



 Зареєстрований:   2017-03-12 14:41
 Розмір:   9.58 GB 
 Оцінка фільму:   3.1/10 (Голосів: 13)
   
Anonymous 







2017-02-20 19:05  
інші частини теж додаватимуться у цей реліз.
Patriot_ukr 
VIP


З нами з: 06.04.15
Востаннє: 23.10.17
Повідомлень: 1802

2017-02-20 21:24  
Додайте скріншоти
Labї 
Новенький


З нами з: 01.02.16
Востаннє: 02.10.17
Повідомлень: 24

2017-02-21 11:00  
Поки не бачив. Але, 9,36 ГБ то забагато. Як його записати на диски, скажімо?
Anonymous 







2017-02-21 11:07  
Labї написано:
Як його записати на диски, скажімо?

на блурей влізе спокійно, мабуть усі частини разом , а на ДВД5 чи ДВД9 або розбивати при муксуванні в або одразу вантажити 1080p чи 720p версії з ютуба.

Labї 
Новенький


З нами з: 01.02.16
Востаннє: 02.10.17
Повідомлень: 24

2017-02-21 19:05  
Спроби скачати натикаються на повідомлення, що цей торент є у списку! а мю-торент показує що під'єднання до пірів =0. Шкода. Хоч краєм ока глянути, що то за кіно(((
Anonymous 







2017-02-21 19:34  
igor911 написано:
Переглянути онлайн:


Додано через 13 секунд:

Labї написано:
Хоч краєм ока глянути

Anonymous 







2017-03-12 14:42  
реліз оновлено - змінено якість з 1440p на 1080p, додано третю частину.
11FrYkT 
Модератор відео


З нами з: 20.02.11
Востаннє: 23.10.17
Повідомлень: 3981

2017-03-12 15:12  
Anonymous написано:
2K 1440p

поправте заголовок, також замініть скріншоти на 1080р

Ваш часовий пояс: GMT + 2 Години

Нова тема   Відповісти