Американський Пиріг 3: Весілля / American Pie 3: Wedding (2003) DVDRemux Ukr/Eng

Нові коментарі

Нова тема   Відповісти
Останній раз роздавалося mustang1 (2017-09-25)
Автор Повідомлення
Anonymous 







2017-02-20 12:55  
Американський Пиріг 3: Весілля / American Pie 3: Wedding (2003) DVDRemux Ukr/Eng

Американський Пиріг 3: Весілля / American Pie 3: Wedding (2003) DVDRemux Ukr/Eng


Жанр: мелодрама, комедія, підлітковий
Країна: США,Німеччина



Кінокомпанія: Universal Pictures, Zide-Perry Productions, LivePlanet
Режисер: Джессі Ділан
Актори: Джейсон Біггз, Шонн Уільям Скотт, Елісон Хенніген, Едді Кей Томас, Томас Йен Ніколас, Дженьюері Джонс, Юджин Леві, Моллі Чік, Дебора Раш, Фред Уіллард

Сюжет:
Джим і Мішель вирішили одружитися! Адже весілля - штука важлива, і готуватися до неї треба грунтовно і серйозно, тим більше, якщо шофером у нареченого збирається стати сам Стіфлер! У обширну передвесільну програму включені: холостяцька вечірка із стриптизерками; спокушання жінок похилого віку в непроглядній пітьмі; прикраса весільного торта лобковим волоссям; чергове сексуальне родео Фінча з матусею Стіфлера, як, втім, і сам Стіфлер - новоявлена гей-ікона, природжений танцор-диско і головна зірка торжества! Джим і Мішель запрошують Вас на своє весілля, нудьгувати на якому Вам точно не припаде!


Тривалість: 01:39:08
Якість: DVDRemux
Відео:
кодек: MPEG-2 DVD
розмір кадру: 720х576 (16:9)
бітрейт: 5105-8719 кб/с

Аудіо # 1:
мова: українська
переклад: багатоголосий закадровий
кодек: 5.1
бітрейт: 384 кб/с

Аудіо # 2:
мова: англійська
переклад: оригінал
кодек: 5.1
бітрейт: 384 кб/с

Джерело озвучення:


Субтитри:
мова: українська (на неперекладені місця)
тип: програмні (м'які)
формат: *.srt

Скріншоти






За доріжку поядяка пану abodnya
Джерело:


Срібний реліз (на рейтинг впливає 50% завантаженого)
 Трекер:    Зареєстрований   

Завантажити / скачати фільм українською



відео для новачків



 Зареєстрований:   2017-02-20 13:06
 Розмір:   4.15 GB 
 Оцінка фільму:   4.7/10 (Голосів: 20)
   
Інші релізи
hetzendorf 
Відео Гуртом - підтримка та поширення
Відео Гуртом - підтримка та поширення


З нами з: 23.07.15
Востаннє: 25.09.17
Повідомлень: 466

2017-02-20 14:48  
Це я ще того часу, як воно вийшло, подивися. Надзвичайно тупий і нудний витвір. Добре, що попередні 2 не бачив.
1/10

Tarasyk 
Відео Гуртом - фільмокрай
Відео Гуртом - фільмокрай


З нами з: 26.08.09
Востаннє: 16.09.17
Повідомлень: 6359

2017-02-20 15:49  
Кому потрібен DVDRemux?
Anonymous 







2017-02-20 15:59  
Tarasyk
А кому потрібні звичайні двдріпи які тут роблять ?

Додано через 1 хвилину 19 секунд:

hetzendorf
Ну перші дві кращі ніж ця.

Tarasyk 
Відео Гуртом - фільмокрай
Відео Гуртом - фільмокрай


З нами з: 26.08.09
Востаннє: 16.09.17
Повідомлень: 6359

2017-02-20 16:07  
Anonymous написано:
А кому потрібні звичайні двдріпи які тут роблять ?

Ріп займає у 3 рази менше місця практично без втрати якості. Це ж не блю-рей і його ріпи, а двд...

Anonymous 







2017-02-20 16:13  
Tarasyk написано:
без втрати якості

Ага , звісно без втрат Wide grin

Ігор Вінський 
VIP


З нами з: 17.03.11
Востаннє: 25.09.17
Повідомлень: 362

2017-02-20 16:27  
Хвилиночку уваги, я не зрозумів чого тут така палка дискусія відбувається. Я доволі часто завантажую ДВД-ріпи на Гуртом, потім вантажу ДВД з инших трекерів і роблю для себе саме ДВД-ремукси, якщо фільм не вийшов на Блю-рей. Тому мені зручніше і приємніше завантажити вже зроблений тут ДВД-ремукс ніж робити так як я написав вище. Це добре що є вибір у якій якости вантажити відео, чи не так?

Додано через 6 хвилин 55 секунд:

Учора наприклад зробив собі ДВД-ремукс цього фільму https://toloka.to/t34875 .

Anonymous 







2017-02-20 16:39  
Ігор Вінський
Було б чудово, як би ви зробили його реліз Happy

Ігор Вінський 
VIP


З нами з: 17.03.11
Востаннє: 25.09.17
Повідомлень: 362

2017-02-20 16:51  
Anonymous
Е-е-е-х. Язик мій, ворог мій. Я не маю тепер можливости не те щоб робити релізи, але підтримувати роздачі мені важко з-за багатьох причин тепер. Можу якщо хочете через файлообмінник передати вам.

11FrYkT 
Модератор відео


З нами з: 20.02.11
Востаннє: 25.09.17
Повідомлень: 3899

2017-02-20 22:37  
Anonymous написано:
Не бійтеся за відео, на скрінах воно 4:3 , але коли буде дивитися то буде 16:9 (на весь екран)

ну то можливо краще зробити скріншоти правильно і також зазначити реальний розмір кадру

Anonymous 







2017-02-20 23:28  
11FrYkT
як правильно? я роблю у мрс (Файл/зберегти зображення) як звичайно більшість робить.
а у мене і зазначено реальный
ось медіаінфо
Info
General
Unique ID : 180801079917107424242607348060109084590 (0x8805057917F1D44CB66C5FB5CA5B17AE)
Complete name : E:\American Pie 3 Wedding[DVDREMUX.UKR.ENG].
Format :
Format version : Version 4 / Version 2
File size : 4.15 GiB
Duration : 1h 39mn
Overall bit rate mode : Variable
Overall bit rate : 5 992 Kbps
Encoded date : UTC 2017-02-17 19:13:37
Writing application : mkvmerge v8.8.0 ('Wind at my back') 64bit
Writing library : libebml v1.3.3 + libmatroska v1.4.4
DURATION : 00:58:42.513000000
NUMBER_OF_FRAMES : 110
NUMBER_OF_BYTES : 6611
_STATISTICS_WRITING_APP : mkvmerge v8.8.0 ('Wind at my back') 64bit
_STATISTICS_WRITING_DATE_UTC : 2017-02-17 19:13:37
_STATISTICS_TAGS : BPS DURATION NUMBER_OF_FRAMES NUMBER_OF_BYTES

Video
ID : 1
Format : MPEG Video
Format version : Version 2
Format profile : [email protected]
Format settings, BVOP : Yes
Format settings, Matrix : Custom
Format settings, GOP : M=3, N=12
Codec ID : V_MPEG2
Codec ID/Info : MPEG 1 or 2 Video
Duration : 1h 39mn
Bit rate mode : Variable
Bit rate : 5 105 Kbps
Maximum bit rate : 8 719 Kbps
Width : 720 pixels
Height : 576 pixels
Display aspect ratio : 16:9
Frame rate mode : Constant
Frame rate : 25.000 fps
Standard : PAL
Color space : YUV
Chroma subsampling : 4:2:0
Bit depth : 8 bits
Compression mode : Lossy
Bits/(Pixel*Frame) : 0.492
Time code of first frame : 00:00:00:00
Time code source : Group of pictures header
GOP, Open/Closed : Open
GOP, Open/Closed of first fram : Closed
Stream size : 3.54 GiB (85%)
Language : English
Default : No
Forced : No
DURATION : 01:39:08.000000000
NUMBER_OF_FRAMES : 148700
NUMBER_OF_BYTES : 3882223619
_STATISTICS_WRITING_APP : mkvmerge v8.8.0 ('Wind at my back') 64bit
_STATISTICS_WRITING_DATE_UTC : 2017-02-17 19:13:37
_STATISTICS_TAGS : BPS DURATION NUMBER_OF_FRAMES NUMBER_OF_BYTES

Audio #1
ID : 2
Format : AC-3
Format/Info : Audio Coding 3
Mode extension : CM (complete main)
Format settings, Endianness : Big
Codec ID : A_AC3
Duration : 1h 39mn
Bit rate mode : Constant
Bit rate : 384 Kbps
Channel(s) : 6 channels
Channel positions : Front: L C R, Side: L R, LFE
Sampling rate : 48.0 KHz
Bit depth : 16 bits
Compression mode : Lossy
Stream size : 272 MiB (6%)
Title : MVO - Surround 5.1
Language : Ukrainian
Default : Yes
Forced : Yes
DURATION : 01:39:07.904000000
NUMBER_OF_FRAMES : 185872
NUMBER_OF_BYTES : 285499392
_STATISTICS_WRITING_APP : mkvmerge v8.8.0 ('Wind at my back') 64bit
_STATISTICS_WRITING_DATE_UTC : 2017-02-17 19:13:37
_STATISTICS_TAGS : BPS DURATION NUMBER_OF_FRAMES NUMBER_OF_BYTES

Audio #2
ID : 3
Format : AC-3
Format/Info : Audio Coding 3
Mode extension : CM (complete main)
Format settings, Endianness : Big
Codec ID : A_AC3
Duration : 1h 39mn
Bit rate mode : Constant
Bit rate : 384 Kbps
Channel(s) : 6 channels
Channel positions : Front: L C R, Side: L R, LFE
Sampling rate : 48.0 KHz
Bit depth : 16 bits
Compression mode : Lossy
Stream size : 272 MiB (6%)
Title : Surround 5.1
Language : English
Default : No
Forced : No

Text
ID : 4
Format : UTF-8
Codec ID : S_TEXT/UTF8
Codec ID/Info : UTF-8 Plain Text
Default : Yes
Forced : Yes

Menu
00:00:00.000 : en:Chapter 01
00:07:06.960 : en:Chapter 02
00:13:24.280 : en:Chapter 03
00:15:59.400 : en:Chapter 04
00:19:39.360 : en:Chapter 05
00:20:51.840 : en:Chapter 06
00:23:58.880 : en:Chapter 07
00:28:41.720 : en:Chapter 08
00:31:54.120 : en:Chapter 09
00:37:03.120 : en:Chapter 10
00:39:36.480 : en:Chapter 11
00:40:55.920 : en:Chapter 12
00:56:37.640 : en:Chapter 13
01:00:21.560 : en:Chapter 14
01:02:15.800 : en:Chapter 15
01:05:27.320 : en:Chapter 16
01:08:07.800 : en:Chapter 17
01:10:10.440 : en:Chapter 18
01:12:51.400 : en:Chapter 19
01:15:47.080 : en:Chapter 20
01:20:06.560 : en:Chapter 21
01:23:36.320 : en:Chapter 22
01:25:41.600 : en:Chapter 23
01:26:46.800 : en:Chapter 24
01:29:37.240 : en:Chapter 25
01:32:15.400 : en:Chapter 26
01:33:20.680 : en:Chapter 27
01:34:09.160 : en:Chapter 28

11FrYkT 
Модератор відео


З нами з: 20.02.11
Востаннє: 25.09.17
Повідомлень: 3899

2017-02-21 08:27  
Anonymous, спробуйте VLC, або то POVERDVD
У Вас така ситуація як тут https://toloka.to/t75549 і ще в багатьх ДВД

Anonymous 







2017-02-21 13:31  
11FrYkT
дяку, замінив)

aVa_W 
Новенький


З нами з: 21.04.16
Востаннє: 23.09.17
Повідомлень: 24

2017-08-08 16:32  
Написано що роздає один,але швидкості взагалі нема...все одно дякую за реліз,завантажу іншим разом.
Ваш часовий пояс: GMT + 2 Години

Нова тема   Відповісти